シャイン
宮野真守

BASIC

Level: 2
BPM: 134
Notes: 181

1
口口口口 |----|
口口口口 |----|
口口口口 |----|
口口口口 |----|
2
口口口口 |①---|
口口②口 |----|
口口①口 |②---|
口口口口 |----|
3
口口口口 |①---|
口②口口 |----|
口①口口 |②---|
口口口口 |----|
4
口口口口 |①---|
①口口② |----|
口口口口 |②---|
口口口口 |----|
5
口口口口 |①---|
口口口口 |②---|
④③②① |③---|
口口口口 |④---|
6
口口口口 |①---|
①口口② |----|
口口口口 |②---|
口口口口 |----|
7
口口口口 |①---|
口①②口 |----|
口①②口 |②---|
口口口口 |----|
8
口口口口 |①---|
口③口口 |②-③-|
口口②口 |----|
口①①口 |----|
9
口口口口 |----|
口口口口 |----|
口②②口 |--①-|
口①①口 |-②--|
10
口口口口 |①---|
①口口① |----|
口口口口 |----|
口口口口 |----|
11
口口口口 |----|
口口口口 |----|
口口口口 |----|
口口口口 |----|
12
口口口口 |①---|
口口口口 |----|
口口口口 |②---|
口①②口 |----|
13
口口口口 |①---|
②口口② |----|
①口口① |②---|
口口口口 |----|
14
①口口① |①---|
口口口口 |----|
口口口口 |----|
口口口口 |----|
15
口口口口 |----|
口②①口 |----|
口①②口 |--①-|
口口口口 |--②-|
16
口口口口 |----|
①口口口 |----|
口口口口 |①---|
口口口口 |----|
17
口口口口 |①---|
口口①口 |----|
②口口口 |②---|
口口口口 |----|
18
口口口口 |①---|
口口口口 |----|
口口①口 |②---|
②口口口 |----|
19
口口口口 |①---|
口③②口 |----|
口②③口 |--②-|
口口①口 |--③-|
20
口口口口 |----|
口口口① |----|
口口口口 |①---|
口口口口 |----|
21
口口口口 |①---|
口①口口 |----|
口口口② |②---|
口口口口 |----|
22
口口口口 |①---|
口口口口 |----|
口①口口 |②---|
口口口② |----|
23
口口口口 |①---|
口口口口 |----|
③口口③ |②---|
口①②口 |--③-|
24
②口口② |----|
①口口① |--①-|
口口口口 |----|
口口口口 |--②-|
25
口口口口 |----|
口口口口 |----|
口口口口 |----|
口口口口 |----|
26
口口口口 |①---|
口①口口 |----|
口②口口 |②---|
口口口口 |----|
27
口口口口 |①---|
口③口口 |----|
口口②口 |②---|
口①口口 |③---|
28
②口①口 |①---|
口口口口 |----|
口口口口 |②---|
口口口口 |----|
29
口口口口 |①---|
①口口口 |----|
②口口口 |②---|
口口口口 |----|
30
口口口口 |①---|
口口①口 |----|
口口②口 |②---|
口口口口 |----|
31
口口口口 |①---|
口口③口 |----|
口②口口 |②---|
口口①口 |③---|
32
②①③④ |①---|
口口口口 |②---|
口口口口 |③---|
口口口口 |④---|
33
口口口口 |①---|
②①③④ |②---|
口口口口 |③---|
口口口口 |④---|
34
口口口口 |①---|
口口口口 |②---|
②①③④ |③---|
口口口口 |④---|
35
口口口口 |①---|
口口口口 |②---|
口口口口 |③---|
②①③④ |④---|
36
口口口口 |①---|
口②④口 |②---|
口①③口 |③---|
口口口口 |④---|
37
口口口口 |①---|
②口口④ |②---|
①口口③ |③---|
口口口口 |④---|
38
口①①口 |①---|
口口口口 |----|
口②②口 |②---|
口口口口 |----|
39
②口口② |①---|
口口口口 |----|
①口口① |②---|
口口口口 |----|
40
口口口口 |----|
口口口口 |----|
口口口口 |----|
口口口口 |----|
41
口口口口 |①---|
①②③④ |②---|
口口口口 |③---|
口口口口 |④---|
42
口口口口 |①---|
口③③口 |②---|
口口②① |③---|
口口口口 |----|
43
口口口口 |①---|
口口口口 |②---|
口口口口 |③---|
①②③④ |④---|
44
口口口口 |①---|
口②②口 |----|
口①①口 |②---|
口口口口 |----|
45
口口口口 |①---|
④③②① |②---|
口口口口 |③---|
口口口口 |④---|
46
口口口口 |①---|
口③③口 |②---|
①②口口 |③---|
口口口口 |----|
47
口口口口 |①---|
口口口口 |②---|
口口口口 |③---|
④③②① |④---|
48
口口口口 |①---|
口口口口 |②---|
①②③④ |③---|
口口口口 |④---|
49
口口口口 |①---|
④③②① |②---|
口口口口 |③---|
口口口口 |④---|
50
④③①② |①---|
口口口口 |②---|
口口口口 |③---|
口口口口 |④---|
51
口口口口 |①---|
口①①口 |②---|
口②②口
口口口口

口口口口
口口④口
口④口口 |③---|
口③③口 |--④-|
52
口口口口 |----|
口①②口 |--①-|
口②①口 |----|
口口口口 |--②-|
53
①①①① |----|
口口口口 |①---|
口口口口 |----|
口口口口 |----|
54
口口口口 |----|
③口口③ |----|
口②②口 |①--②|
口①①口 |--③-|
55
口口口口 |----|
③口口③ |----|
口②②口 |①--②|
口①①口 |--③-|
56
口口口口 |----|
③口口③ |----|
口②②口 |①--②|
口①①口 |--③-|

不確定度: 0

最終更新:2016年04月21日 01:05