シャイン
宮野真守

ADVANCED

Level: 5
BPM: 134
Notes: 368

1
口口口口 |----|
口口口口 |----|
口口口口 |----|
口口口口 |----|
2
口①口口 |①--②|
口②口口 |--③-|
口③口口 |----|
口口口口 |----|
3
口口①口 |①--②|
口口②口 |--③-|
口口③口 |----|
口④④口 |④---|
4
口口口口 |①---|
①口口① |②---|
②口口② |③---|
③口口③ |----|
5
口④口口 |①---|
口口③口 |②---|
口②口口 |③---|
口口①口 |④---|
6
口口口口 |①---|
①口口① |②---|
②口口②
口口口口

口口口口
④⑤口口
口口口口 |③---|
③口口③ |④-⑤-|
7
口口①① |①---|
口口④④ |②-③-|
②③口口 |④---|
⑤⑥口口 |⑤-⑥-|
8
口②③口 |①---|
口②③口 |②-③-|
口口①① |----|
口口口口 |----|
9
口口口口 |----|
口①②口 |----|
口②①口 |--①-|
口口口口 |-②--|
10
①①口口 |①---|
口口口口 |----|
口口口口 |----|
口口①① |----|
11
口口口口 |----|
口口①口 |----|
口口②口 |--①-|
口口口口 |-②--|
12
口口口口 |①---|
口口口口 |----|
口口口口 |②---|
口②①口 |----|
13
⑥口口③ |①--②|
⑤口口② |--③-|
④口口① |④--⑤|
口口口口 |--⑥-|
14
口口①① |①---|
口口口口 |----|
口口口口 |----|
口口口口 |----|
15
①①口口 |----|
口口口口 |----|
口口口口 |--①-|
口口②② |--②-|
16
口口口口 |----|
口②①口 |----|
口口口口 |①---|
口口口口 |②---|
17
口口口口 |①---|
口③④口 |②---|
②④③① |--③-|
口口口口 |--④-|
18
口口口口 |----|
②口③② |①---|
口③口口 |②---|
①口口① |--③-|
19
口口口口 |----|
口口口口 |①---|
口口口口
①口口①

③③口口
②口口②
口口口口 |②-③-|
口口④④ |--④-|
20
口口口口 |----|
口①②口 |----|
口口口口 |①---|
口口口口 |②---|
21
口口口口 |①---|
口④③口 |②---|
①③④② |--③-|
口口口口 |--④-|
22
口口口口 |----|
②③口② |①---|
口口③口 |②---|
①口口① |--③-|
23
口口③③ |----|
②口口② |①---|
口口口口 |②---|
①口口① |--③-|
24
③③⑥⑥ |--①-|
口⑤②口 |②-③-|
口①④口 |--④-|
口口口口 |⑤-⑥-|
25
口口口口 |----|
口口口口 |----|
口口口口 |----|
口口口口 |----|
26
①①①① |①---|
③③③③ |②-③-|
口②②口
口口口口

⑤⑤⑤⑤
口口口口
口口口口 |--④-|
口④④口 |--⑤-|
27
口口口口 |--①-|
②口口口 |--②-|
①①①①
口口口口

口口口口
口③④⑤
口口口⑥ |③-④-|
口口口口 |⑤-⑥-|
28
口②口口 |①---|
口③口口 |--②-|
口④①口 |③-④-|
口⑤⑥口 |⑤-⑥-|
29
口口口口 |①---|
口②②口 |----|
口口①口 |②---|
口口口口 |----|
30
①①①① |①---|
③③③③ |②-③-|
口②②口
口口口口

⑤⑤⑤⑤
口口口口
口口口口 |--④-|
口④④口 |--⑤-|
31
口口口口 |--①-|
口口口② |--②-|
①①①①
口口口口

口口口口
⑤④③口
⑥口口口 |③-④-|
口口口口 |⑤-⑥-|
32
口口口口 |①---|
口口口口 |②-③-|
⑥④①⑤ |④---|
②④①③ |⑤-⑥-|
33
口③口口 |①---|
口③口口 |②---|
④②①口 |③---|
④②①口 |④---|
34
②④①③ |①---|
⑥④①⑤ |②-③-|
口口口口 |④---|
口口口口 |⑤-⑥-|
35
④②①口 |①---|
④②①口 |②---|
口③口口 |③---|
口③口⑤ |④-⑤-|
36
口口口口 |①---|
口口口口 |--②-|
口口①①
②口口口

口口口口
口口口口
③③口④ |③---|
口口口口 |--④-|
37
④口口④ |①---|
③③①① |--②-|
②口口口 |③---|
口口口口 |--④-|
38
口⑦口口 |--①-|
口①⑥口 |②-③-|
口⑤②口 |④-⑤-|
口③④口 |⑥-⑦-|
39
②口口① |①-②-|
②④④① |--③-|
口口口口 |④---|
口③③口 |----|
40
口口口口 |----|
口口口口 |----|
口①①口 |--①-|
口口口口 |----|
41
②口③① |①---|
口口④③ |②---|
口口口④ |③---|
①口口② |④---|
42
①③口② |①---|
③④口口 |②---|
④口口口 |③---|
②口⑤① |④-⑤-|
43
口口口口 |①---|
口口②② |②-③-|
口口③③
口①口口

口口⑥⑥
口口口口
④④口口 |--④-|
⑤⑤口口 |⑤-⑥-|
44
口④④口 |--①-|
①①口口 |②-③-|
口口②② |--④-|
③③口口 |----|
45
③口③口 |①---|
①②①② |②---|
②①②① |③---|
口④口④ |④---|
46
口③口③ |①---|
②①②① |②---|
①②①② |③---|
④口④口 |④---|
47
④口口④ |①---|
②③①① |②-③-|
②③口口 |--④-|
⑤口口⑤ |--⑤-|
48
口②②口 |--①-|
口口口口 |②---|
口口口口 |----|
口①①口 |----|
49
口口①口 |----|
口②口口 |----|
口口③口 |--①-|
口口口口 |②-③-|
50
⑥口口⑥ |①---|
⑤口口③ |②-③-|
⑤②④③ |--④-|
口①口口 |⑤-⑥-|
51
口口口口 |--①-|
口①①口 |②-③-|
口②②口
口③③口

口口⑥⑥
④⑤口口
口口口口 |--④-|
口口口口 |⑤-⑥-|
52
口口口口 |--①-|
口口③③ |②-③-|
①②⑥⑥ |--④-|
④⑤口口 |⑤-⑥-|
53
口①②口 |--①-|
口①②口 |②---|
口口口口 |----|
口口口口 |----|
54
③③口口 |----|
口①②口 |----|
口②①口 |①--②|
口口③③ |--③-|
55
③③口口 |----|
口①②口 |----|
口②①口 |①--②|
口口③③ |--③-|
56
③③口口 |----|
口①②口 |----|
口②①口 |①--②|
口口③③ |--③-|

不確定度: 0

最終更新:2016年04月21日 00:58