シャイン
宮野真守

EXTREME

Level: 8
BPM: 134
Notes: 542

1
口口口口 |----|
口口口口 |----|
口口口口 |----|
口口口口 |----|
2
①口口① |①--②|
②口口② |--③-|
口③口口 |----|
口口③口 |----|
3
口口③口 |①--②|
口③口口 |--③-|
②口口②
①口口①

口口口口
口口口口
⑤⑤口口 |----|
口口④④ |④-⑤-|
4
口口①① |①---|
口口②② |②---|
口口③③ |③---|
口④⑤口 |--④⑤|
5
③⑧口④ |①-②-|
⑤口②⑥ |③④⑤⑥|
⑦①⑨⑨ |⑦-⑧-|
⑨⑨口口 |⑨---|
6
口口①① |①---|
口口②② |②---|
口口口口
口口口口

口口口口
口口口⑤
④口③③ |③---|
口口口口 |④-⑤-|
7
④②口口 |①---|
口④①口 |②-③-|
⑤①④口 |④---|
口口③⑥ |⑤-⑥-|
8
口③②① |①---|
②口①③ |②-③-|
③①口② |----|
①②③口 |----|
9
②①口口 |----|
①②口口 |----|
口口②① |--①-|
口口①② |-②--|
10
口口①口 |①---|
口口①① |----|
①①口口 |----|
口①口口 |----|
11
①口口① |----|
口口口口 |----|
口口口口 |--①-|
②口口② |-②--|
12
口口口⑤ |①②③④|
口口口⑥ |-⑤⑥⑦|
口④③⑦
口②①口

口口⑪口
口⑩口口
口口⑨口 |----|
口⑧口口 |⑧⑨⑩⑪|
13
③③口② |①--②|
口口口② |--③-|
①①口口
口口口口

口口口口
⑤口口口
⑤⑥⑥⑥ |④--⑤|
⑤④④④ |--⑥-|
14
口①口① |①---|
口①口① |----|
口口口口 |----|
口口口口 |----|
15
口口口口 |----|
①口②① |----|
②口口② |--①-|
①②口① |--②-|
16
①②③口 |--①②|
口口口口 |③-④-|
口口口口
口口口④

口口⑧口
口口口口
⑤口⑥口 |⑤-⑥⑦|
口⑦口口 |--⑧-|
17
③①口③ |①-②-|
①②①口 |③-④-|
口①口口
④口口④

口口口口
口口口口
⑤⑥⑦口 |--⑤-|
口口口口 |⑥-⑦-|
18
⑤⑤口① |--①-|
口口口口 |②-③④|
②④口口 |----|
口口③口 |--⑤-|
19
口口口① |--①-|
口口口口 |②-③④|
②④口口
口口③口

口口口口
⑤口⑥⑤
⑥口口⑥ |--⑤-|
⑤⑥口⑤ |--⑥-|
20
①②③口 |--①②|
口⑧⑧口 |③-④-|
⑤口⑥口 |⑤-⑥⑦|
口⑦口④ |--⑧-|
21
④口口③ |①-②-|
②口口① |③-④-|
口口口口
③口口④

口口⑦⑦
口口口口
⑤⑥口口 |--⑤-|
口口口口 |⑥-⑦-|
22
①口⑤⑤ |--①-|
口口口口 |②-③④|
口口④② |----|
口③口口 |--⑤-|
23
①⑤⑤口 |--①-|
⑤口口⑤ |②-③④|
口口④② |----|
口③口口 |--⑤-|
24
②口口① |--①-|
⑤③③④ |②-③-|
③⑥⑥③ |--④-|
⑥口口⑥ |⑤-⑥-|
25
⑥口口⑦ |--①-|
④口口⑤ |②-③-|
②口口③ |④-⑤-|
口口①口 |⑥-⑦-|
26
口口口口 |①---|
③口①口 |②-③-|
③①②①
③③①口

口口口口
口口④⑤
口④口④ |--④-|
口口④⑤ |--⑤-|
27
②口口⑤ |--①-|
③①⑥口 |--②③|
④口口⑦ |④-⑤-|
口①口口 |⑥-⑦-|
28
口口口口 |①---|
口③口口 |--②③|
口②口口
口口①口

口④口⑤
口口口⑥
口口口⑦ |④-⑤-|
口口⑧口 |⑥-⑦⑧|
29
口③口口 |--①-|
口口口口 |②-③④|
口口④口 |----|
①口口② |----|
30
口口口口 |①---|
③口①口 |②-③-|
③①②①
③③①口

口口口口
口口④⑤
口④口④ |--④-|
口口④⑤ |--⑤-|
31
②口口⑤ |--①-|
③①⑥口 |--②③|
④口口⑦ |④-⑤-|
口①口口 |⑥-⑦-|
32
口口口口 |①---|
③①口① |②-③-|
口口①口
②①口口

口口口口
口口口⑥
④口口口 |④---|
口口口⑤ |⑤-⑥-|
33
口⑥口⑥ |①-②③|
口③⑤⑧ |-④⑤-|
口②④① |⑥-⑦-|
⑦口⑦口 |--⑧-|
34
口口口口 |①---|
③口口⑥ |②-③-|
④口口① |④---|
②口口⑤ |⑤-⑥-|
35
口⑥口⑥ |①-②③|
口③⑤口 |-④⑤-|
口②④① |⑥-⑦-|
⑦⑧⑦口 |--⑧-|
36
①口①④ |①---|
②口④① |②-③-|
④口口口 |④---|
⑤口⑥③ |⑤-⑥-|
37
⑤①①④ |①---|
⑤②④③ |②-③-|
口④①⑤ |④---|
口口口⑤ |--⑤-|
38
口④口口 |--①②|
口③口口 |③-④-|
口口②口
口①口口

⑧口⑤⑥
口⑨⑦口
口口口口 |⑤-⑥⑦|
口口口口 |-⑧⑨-|
39
口③③口 |①-②-|
②口口① |--③-|
④口口④ |④---|
②④④① |----|
40
口口口口 |----|
口③口口 |----|
口①②口 |--①-|
口口口口 |②-③-|
41
②口④① |①---|
③口⑥④ |②-③-|
⑤口口⑥ |④-⑤-|
①口⑦② |⑥-⑦-|
42
①⑤口③ |①-②-|
⑤⑦口④ |③-④-|
⑦口⑧⑥ |⑤-⑥-|
③②口① |⑦-⑧-|
43
⑥⑥⑥⑥ |①---|
口⑤口⑤ |②-③-|
③②④口 |--④-|
口①③② |⑤-⑥-|
44
口口口口 |--①-|
①③②口 |②-③-|
③口③口
②③①口

④口口口
口口口口
口口口口 |--④-|
⑥口口⑤ |⑤-⑥-|
45
④③④口 |①---|
①②①② |②-③-|
②①②① |④-⑤-|
⑦⑥⑤⑥ |⑥-⑦-|
46
②⑤④⑤ |①-②-|
③①③① |③-④-|
①③①③ |⑤-⑥-|
⑦⑥⑦口 |⑦---|
47
口口口口 |①---|
②口口① |②-③-|
②③①①
口③口口

⑤口口④
口⑤④口
⑤口口④ |--④-|
口口口口 |--⑤-|
48
口口口口 |--①-|
②口口② |②---|
口①①口
②口口②

口口口口
⑤口口⑤
口口口口 |③--④|
口④③口 |--⑤-|
49
口口口口 |--①-|
③③③口 |-②--|
②②口口 |③-④-|
①⑥⑤④ |⑤-⑥-|
50
口口③③ |①-②-|
④口口口 |③-④-|
④①口②
①口口口

口口口口
口口⑧⑥
口口⑥⑧ |⑤-⑥-|
⑦⑦口⑤ |⑦-⑧-|
51
③③②② |①-②-|
①口⑦⑥ |③-④-|
⑤⑦④口 |--⑤-|
口口口④ |⑥-⑦-|
52
③①口⑥ |--①-|
口③⑥口 |②-③-|
④⑥③口 |--④-|
⑥口②⑤ |⑤-⑥-|
53
口②①口 |--①-|
①口口② |②---|
②口口① |----|
口①②口 |----|
54
②①③口 |----|
①②③③ |----|
③③②① |①--②|
口③①② |--③-|
55
②①③口 |----|
①②③③ |----|
③③②① |①--②|
口③①② |--③-|
56
②①③口 |----|
①②③③ |----|
③③②① |①--②|
口③①② |--③-|

不確定度: 0

最終更新:2016年04月21日 00:58