シルエット
KANA-BOON

BASIC

Level: 2
BPM: 183
Notes: 201

1
口口口口 |----|
口口口口 |----|
口口口口 |----|
口口口口 |----|
2
口口口口 |①---|
口口口口 |----|
①口口口 |----|
口口口口 |----|
3
口口口口 |①---|
口口口口 |----|
口口口① |----|
口口口口 |----|
4
口①口口 |①---|
口口口口 |----|
口口口口 |----|
口口口口 |----|
5
口口口口 |①---|
口①口口 |----|
口口口口 |----|
口口口口 |----|
6
口口口口 |①---|
口口口口 |----|
口①口口 |----|
口口口口 |----|
7
口口口口 |①---|
口口口口 |----|
口口口口 |----|
口①口口 |----|
8
口口①口 |①---|
口口口口 |----|
口口口口 |----|
口口口口 |----|
9
口口口口 |①---|
口口①口 |----|
口口口口 |----|
口口口口 |----|
10
口口口口 |①---|
口口口口 |----|
口口①口 |----|
口口口口 |----|
11
口口口口 |①---|
口口口口 |----|
口口口口 |----|
口口①口 |----|
12
口口口口 |①---|
①口口② |----|
口口口口 |②---|
口口口口 |----|
13
口口口口 |----|
口口口口 |----|
口口口口 |----|
口口口口 |----|
14
口口口口 |①---|
口口口口 |----|
①②口口 |②---|
口口口口 |----|
15
口口口口 |①---|
口口口口 |----|
口口①② |②---|
口口口口 |----|
16
口口口口 |①---|
口①①口 |----|
②口口② |②---|
口口口口 |----|
17
①口口① |①---|
口口口口 |----|
口②②口 |②---|
口口口口 |----|
18
口①①口 |①---|
②口口口 |----|
口口口口 |②---|
口口口口 |----|
19
口口口口 |①---|
口②②① |----|
口口口口 |②---|
口口口口 |----|
20
①口口① |①---|
口口口口 |----|
②口口② |②---|
口口口口 |----|
21
口口口口 |----|
口口口口 |----|
口口口口 |----|
口口口口 |----|
22
口口口口 |①---|
口口口口 |----|
②口口② |②---|
①口口① |----|
23
②口口② |①---|
①口口① |----|
口口口口 |②---|
口口口口 |----|
24
②口口② |①---|
口①①口 |----|
口①①口 |②---|
口口口口 |----|
25
②口口② |①---|
口口口口 |----|
①口口① |②---|
口口口口 |----|
26
口口口口 |①---|
口②②口 |----|
①口口① |②---|
口口口口 |----|
27
口口口口 |①---|
口口口口 |----|
口①①口 |②---|
口②②口 |----|
28
口口口口 |----|
①口口① |①---|
口口口口 |----|
口口口口 |----|
29
口口口口 |----|
口口口口 |①---|
①口口① |----|
口口口口 |----|
30
①口口① |----|
口口口口 |①---|
口口口口 |----|
口口口口 |----|
31
口口口口 |①---|
②③口口 |----|
口①①口 |②---|
口口口口 |③---|
32
口口口② |①---|
口口①口 |----|
口口口口 |②---|
口口口口 |----|
33
口口口口 |①---|
口口口口 |②---|
①②③口 |③---|
口口口口 |----|
34
口口口口 |①---|
口口口口 |----|
②口口② |②---|
①口口① |----|
35
口口口口 |①---|
①②③④ |②---|
口口口口 |③---|
口口口口 |④---|
36
口①①口 |①---|
口②②口 |----|
口口口口 |②---|
口口口口 |----|
37
口口口口 |①---|
口口口口 |----|
口①①口 |②---|
口②②口 |----|
38
口口口口 |①---|
口口口口 |----|
②口口② |②---|
①口口① |----|
39
②口口② |①---|
①口口① |----|
口口口口 |②---|
口口口口 |----|
40
口①①口 |①---|
口①①口 |----|
②口口② |②---|
口口口口 |----|
41
①口口① |①---|
口口口口 |----|
②口口② |②---|
口口口口 |----|
42
①口口① |①---|
口②②口 |----|
口口口口 |②---|
口口口口 |----|
43
口口口口 |①---|
口口口口 |----|
口①①口 |②---|
口②②口 |----|
44
口口口口 |①---|
①②③④ |②---|
口口口口 |③---|
口口口口 |④---|
45
口②②口 |①---|
口口口口 |----|
口①①口 |②---|
口口口口 |----|
46
口口口口 |①---|
①②③④ |②---|
口口口口 |③---|
口口口口 |④---|
47
口②②口 |①---|
口口口口 |----|
口①①口 |②---|
口口口口 |----|
48
口口口口 |①---|
口①①口 |----|
②口口② |②---|
口口口口 |----|
49
①口口① |①---|
口口口口 |----|
②口口② |②---|
口口口口 |----|
50
①口口① |①---|
口②②口 |----|
口口口口 |②---|
口口口口 |----|
51
口口口口 |①---|
口口口口 |②---|
①②③④ |③---|
口口口口 |④---|
52
口口口口 |①---|
①②③④ |②---|
口口口口 |③---|
口口口口 |④---|
53
口②②口 |①---|
口口口口 |----|
口①①口 |②---|
口口口口 |----|
54
口口口口 |①---|
④③②① |②---|
口口口口 |③---|
口口口口 |④---|
55
口②②口 |①---|
口口口口 |----|
口①①口 |②---|
口口口口 |----|
56
口口口口 |①---|
口①①口 |----|
②口口② |②---|
口口口口 |----|
57
①口口① |①---|
口口口口 |----|
②口口② |②---|
口口口口 |----|
58
①口口① |①---|
口②②口 |----|
口口口口 |②---|
口口口口 |----|
59
口口口口 |①---|
口口口口 |②---|
①②③④ |③---|
口口口口 |④---|
60
①口口口 |----|
口口口口 |①---|
口口口口 |----|
口口口口 |----|
61
口口口① |----|
口口口口 |①---|
口口口口 |----|
口口口口 |----|
62
口口口口 |----|
口①①口 |①---|
口口口口 |----|
口口口口 |----|
63
口口口口 |----|
口口口口 |----|
口口口口 |①---|
口①①口 |----|
64
口口口口 |①---|
口②②口 |----|
口①①口 |②---|
口口口口 |----|
65
①②③④ |①---|
口口口口 |②---|
口口口口 |③---|
口口口口 |④---|
66
口口口口 |①---|
口口口口 |----|
②口口① |②---|
口口口口 |----|
67
口口口口 |①---|
口②②口 |----|
口①①口 |②---|
口口口口 |----|

不確定度: 0

最終更新:2016年04月21日 00:57