シルエット
KANA-BOON

ADVANCED

Level: 5
BPM: 183
Notes: 337

1
口口口口 |----|
口口口口 |----|
口口口口 |----|
口口口口 |----|
2
口⑤⑥⑦ |①-②-|
①②③④ |③-④-|
口口口口 |--⑤-|
口口口口 |⑥-⑦-|
3
口口口口 |①-②-|
①②口③ |--③-|
④口口口 |④---|
口口口口 |----|
4
口口口口 |①---|
①口口② |--②-|
口③③口 |----|
口口口口 |③---|
5
口①①口 |①---|
口口口口 |--②-|
③口口③ |----|
口②②口 |③---|
6
①口口① |①---|
②⑤口② |--②-|
口口④口 |--③-|
口③口口 |④-⑤-|
7
口口①口 |①---|
②口③口 |--②-|
口口口口 |----|
口口口口 |③---|
8
口口口口 |①---|
口口口① |--②-|
②口③口 |----|
口口口口 |③---|
9
口口口口 |①---|
口口口口 |----|
口口口① |----|
口口口口 |----|
10
口①口口 |①---|
②口③口 |--②-|
口口口口 |----|
口口口口 |③---|
11
口口口口 |①---|
口口口① |--②-|
口②口③ |----|
口口口口 |③---|
12
口口口口 |①---|
①②③④ |②---|
口口口口 |③---|
口口口口 |④---|
13
口口口口 |----|
口口口口 |----|
口①①口 |----|
口口口口 |①---|
14
口口口口 |①---|
④③②① |②---|
口口口口 |③---|
口口口口 |④---|
15
口①①口 |----|
口②②口 |①---|
口③③口 |②---|
口口口口 |③---|
16
口口口口 |①---|
③口口③ |----|
②口口② |②---|
口①①口 |③---|
17
①口口① |①---|
③口口③ |----|
②口口② |②---|
口口口口 |③---|
18
①口口① |①---|
口②②口 |----|
口口口口 |②---|
口口口口 |----|
19
口口口口 |①---|
口口口口 |②---|
①②③④ |③---|
口口口口 |④---|
20
①口口④ |①---|
口②③口 |②---|
口口口口 |③---|
口口口口 |④---|
21
口口口口 |----|
口口口口 |----|
口口口口 |----|
①口口口 |①---|
22
口口口口 |①---|
口口口口 |②---|
①②③④ |③---|
口口口口 |④---|
23
口②②口 |①---|
口③③口 |②---|
口④④口 |③---|
口口口① |④---|
24
口口口口 |①---|
③口口③ |----|
②口口② |②---|
口①①口 |③---|
25
①口口① |①---|
③口口③ |----|
②口口② |②---|
口口口口 |③---|
26
①口口① |①---|
口②②口 |----|
口口口口 |②---|
口口口口 |----|
27
④口口④ |①---|
③口口③ |②---|
②①①② |③---|
口口口口 |④---|
28
口口口口 |----|
口口口口 |①-②-|
①②口③ |--③-|
口口口口 |----|
29
口口口口 |①---|
②③口④ |②-③-|
口口口口 |--④-|
口口口① |----|
30
口口③① |①---|
口口口口 |②-③-|
④口口② |--④-|
口口口口 |----|
31
①口口口 |①---|
②③口口 |----|
口口口口 |②---|
口口口口 |③---|
32
口口口② |①---|
口口①口 |----|
口口口② |②---|
口口口口 |----|
33
口口口口 |①---|
口③③口 |②---|
口②②口 |③---|
口①①口 |----|
34
②口口② |①---|
①口口① |----|
口口口口 |②---|
口口口口 |----|
35
口①①口 |①---|
口②②口 |②---|
口③③口 |③---|
口④④口 |④---|
36
口口口口 |①---|
①②③④ |②---|
口口口口 |③---|
口口口口 |④---|
37
口口口口 |①---|
口③③口 |②---|
口②②口 |③---|
口①①口 |----|
38
①②③④ |①---|
口口口口 |②---|
口口口口 |③---|
口口口口 |④---|
39
口口口口 |①---|
口①①口 |②---|
④②②④ |③---|
口③③口 |④---|
40
口口口口 |①---|
①口口① |----|
③口口③ |②---|
②口口② |③---|
41
口口口口 |①---|
①口口① |----|
③口口③ |②---|
②口口② |③---|
42
口②②口 |①---|
①口口① |----|
口口口口 |②---|
口口口口 |----|
43
口口口口 |①---|
口①①口 |②---|
③②②③ |③---|
④口口④ |④---|
44
口①①口 |①---|
口②②口 |②---|
口③③口 |③---|
口④④口 |④---|
45
口口口口 |①---|
②口口② |----|
①口口① |②---|
口口口口 |----|
46
口④④口 |①---|
口②②口 |②---|
口③③口 |③---|
口①①口 |④---|
47
④口口④ |①---|
③口口③ |②---|
②口口② |③---|
①口口① |④---|
48
口口口口 |①---|
③口口③ |----|
②①①② |②---|
口口口口 |③---|
49
①口口① |①---|
口③③口 |----|
口②②口 |②---|
口口口口 |③---|
50
口①①口 |①---|
口口口口 |----|
②口口② |②---|
口口口口 |----|
51
口④④口 |①---|
口②②口 |②---|
口①①口 |③---|
口③③口 |④---|
52
口口口口 |①---|
①②③④ |②---|
口口口口 |③---|
口口口口 |④---|
53
口口口口 |①---|
口口口口 |②---|
口③②① |③---|
口口口口 |----|
54
④口口④ |①---|
③口口③ |②---|
②口口② |③---|
①口口① |④---|
55
口②②口 |①---|
口①①口 |----|
口②②口 |②---|
口①①口 |----|
56
口口口口 |①---|
①口口① |----|
口③③口 |②---|
①②②① |③---|
57
口口口口 |①---|
③①①③ |----|
②口口② |②---|
口口口口 |③---|
58
①口口① |①---|
口②②口 |----|
口口口口 |②---|
口口口口 |----|
59
口口口口 |①---|
口口口口 |②---|
①口口④ |③---|
口②③口 |④---|
60
口口口口 |----|
①②口③ |①-②-|
口口口口 |----|
口口口口 |③---|
61
口口口① |①---|
口口口口 |②-③-|
口口口口 |----|
②③口④ |④---|
62
口③口口 |①---|
②口口④ |②-③-|
口口口① |----|
口口口口 |④---|
63
口口口① |①---|
口口口口 |----|
口③③口 |②---|
口②②口 |③---|
64
②口口② |①---|
口①①口 |----|
口口口口 |②---|
口口口口 |----|
65
口①①口 |①---|
口④④口 |②---|
口③③口 |③---|
口②②口 |④---|
66
①②③④ |①-②-|
口⑤⑥⑦ |③-④-|
口口口口 |--⑤-|
口口口口 |⑥-⑦-|
67
口口口口 |①-②-|
口口口口 |--③-|
①②口③ |④-⑤-|
④⑤⑥⑦ |⑥-⑦-|

不確定度: 0

最終更新:2016年04月21日 00:56