シルエット
KANA-BOON

EXTREME

Level: 8
BPM: 183
Notes: 485

1
口口口口 |----|
口口口口 |----|
口口口口 |----|
口口口口 |----|
2
⑤口口口 |①-②-|
⑥②口④ |③-④-|
①⑦③口 |--⑤-|
口口口口 |⑥-⑦-|
3
口口④④ |①-②-|
口口①④ |--③-|
口口③② |④---|
口口口口 |----|
4
①①口口 |①---|
口口口② |--②-|
③口口② |----|
③口口口 |③---|
5
①①口口 |①---|
口口口② |--②-|
③口口② |----|
③口口口 |③---|
6
①口口② |①---|
⑤①②口 |--②-|
口口④口 |--③-|
③口口口 |④-⑤-|
7
②口①③ |①---|
口口口口 |--②-|
②口口③ |----|
口口口口 |③---|
8
②①①③ |①---|
口口口口 |--②-|
②口口③ |----|
口口口口 |③---|
9
口①①口 |①---|
口口口口 |----|
口口口口 |----|
口口口口 |----|
10
①③③② |①---|
口口口口 |--②-|
①口口② |----|
口口口口 |③---|
11
口③④口 |①---|
口⑤⑥口 |--②-|
口①①口 |-③④⑤|
②⑦⑧② |⑥-⑦⑧|
12
②④④② |①---|
口口口口 |②---|
①口口① |③---|
③口口③ |④---|
13
口口口口 |----|
口口口口 |----|
①①①① |----|
口口口口 |①---|
14
①②③④ |①-②-|
①②③④ |③-④-|
⑥口口⑦ |⑤---|
⑥⑤⑤⑦ |⑥-⑦-|
15
①①①① |----|
②②②② |①---|
③③③③ |②---|
口口口口 |③---|
16
口②口口 |①---|
②口口③ |----|
口口③口 |②---|
①①①① |③---|
17
口②口口 |①---|
②口口③ |----|
口①③口 |②---|
①口口口 |③---|
18
口口口口 |①---|
口口口口 |----|
口①口口 |②---|
①②②口 |----|
19
口①①口 |①---|
②③④口 |②---|
②③④口 |③---|
口口口口 |④---|
20
②②②② |①---|
口⑤⑤① |②---|
口④④① |③-④-|
口③③口 |⑤---|
21
口口口口 |----|
口①②口 |----|
口口口口 |----|
口口口口 |①-②-|
22
口口口口 |①-②-|
口口口① |③-④-|
口④③② |⑤---|
⑥⑤⑤⑦ |⑥-⑦-|
23
①①①① |----|
②②②② |①---|
③③③③ |②---|
口口口口 |③---|
24
口②口口 |①---|
②口口③ |----|
口口③口 |②---|
①①①① |③---|
25
口②口口 |①---|
②口口③ |----|
口①③口 |②---|
①口口口 |③---|
26
口口口口 |①---|
口口口口 |----|
口①口口 |②---|
①②②口 |----|
27
口①①口 |①---|
②③④口 |②---|
②③④口 |③---|
口口口口 |④---|
28
口口口② |----|
口口③口 |①-②-|
口口③口 |--③-|
口口口① |----|
29
③口口口 |①---|
口④口① |②-③-|
口④口① |--④-|
②口口口 |----|
30
③口口③ |①---|
①④④口 |②-③-|
①④④口 |--④-|
②口口② |----|
31
口②③口 |①---|
②③②③ |----|
①②③① |②---|
口①①口 |③---|
32
②口口② |①---|
口口口口 |----|
口口口口 |②---|
①口口① |----|
33
口①①口 |①---|
口②②口 |②---|
口③③口 |③---|
口口口口 |----|
34
口口口口 |①---|
口口口口 |----|
②口口② |②---|
①口口① |----|
35
①①①① |①---|
②②②② |②---|
③③③③ |③---|
④④④④ |④---|
36
①①②② |①---|
③口口④ |②---|
③口口④ |③---|
口口口口 |④---|
37
口口④口 |①---|
口③口口 |②-③-|
口口②口 |④---|
口①①口 |----|
38
①④④② |①---|
①口口② |②---|
口口口口 |③---|
口③③口 |④---|
39
⑤口口④ |①---|
③口口口 |②-③-|
口口口② |④---|
①口口① |⑤---|
40
口口口口 |①---|
口口③口 |----|
②①①③ |②---|
口②口口 |③---|
41
①口口口 |①---|
口①③口 |----|
②口口③ |②---|
口②口口 |③---|
42
①口②口 |①---|
口①口口 |----|
口口口口 |②---|
口口口口 |----|
43
口口口口 |①---|
口①①① |②---|
口口②口 |③---|
口③口④ |④---|
44
①①①① |①---|
②②②② |②---|
口口口口
口口口口

口⑤口口
口口口口
③③③③ |③---|
④④④④ |④-⑤-|
45
②口①口 |①---|
口口口③ |②-③-|
④口口口 |④---|
口口口口 |----|
46
④④④④ |①---|
②②②② |②---|
③③③③ |③---|
①①①① |④---|
47
口口口口 |①---|
口⑤⑤④ |②-③-|
③⑤⑤口 |④---|
口①①② |⑤---|
48
①口口① |①---|
口③口口 |----|
③口口② |②---|
口口②口 |③---|
49
口口口① |①---|
口③①口 |----|
③口口② |②---|
口口②口 |③---|
50
口口口① |①---|
口口①口 |----|
口口口口 |②---|
口②②口 |----|
51
④④④④ |①---|
②②②② |②---|
①①①① |③---|
③③③③ |④---|
52
口口口口 |①---|
③②②④ |②---|
③①①④ |③---|
口口口口 |④---|
53
口口④口 |①---|
口③口口 |②-③-|
口口②口 |④---|
口①①口 |----|
54
口口口口 |①---|
口口口口 |②---|
②②②②
①①①①

④④④④
③③③③
口口口口 |③---|
口⑤口口 |④-⑤-|
55
④口口④ |①---|
③口口③ |②---|
②④④② |③---|
③口①③ |④---|
56
口②口口 |①---|
②①①③ |----|
口口③口 |②---|
口①①口 |③---|
57
口②口口 |①---|
②口口③ |----|
口①③口 |②---|
①口口口 |③---|
58
②口口② |①---|
口口口口 |----|
口①口口 |②---|
①口口口 |----|
59
口口口口 |①---|
口口口口 |②---|
①口口④ |③---|
口②③口 |④---|
60
口①口口 |----|
口③②口 |①-②-|
口口口口 |----|
口口口口 |③---|
61
口②口口 |①---|
口④③口 |②-③-|
口口口口 |----|
口口①口 |④---|
62
口口口② |①---|
口口③④ |②-③-|
口口口口 |----|
口口①口 |④---|
63
口②②口 |①---|
口口口口 |----|
口③③口 |②---|
口口①口 |③---|
64
口口口口 |①---|
①口口① |----|
②口口② |②---|
口口口口 |----|
65
①①①① |①---|
口④口④ |②---|
③口③口 |③---|
②②②② |④---|
66
口口口⑤ |①-②-|
①口③⑥ |③-④-|
口②⑦④ |--⑤-|
口口口口 |⑥-⑦-|
67
⑦口口⑦ |①-②-|
③①④口 |--③-|
②⑥⑥口 |④-⑤-|
⑤口口⑤ |⑥-⑦-|

不確定度: 0

最終更新:2016年04月21日 00:56