走れメロンパン [2]
日向美ビタースイーツ♪

BASIC

Level: 4
BPM: 170
Notes: 215

1
口口口口 |----|
口口口口 |----|
口口口口 |----|
口口口口 |----|
2
口口口口 |①---|
口口 |----|
口口 |----|
口口口口 |----|
3
口口口口 |①---|
口口口口 |----|
口口 |----|
口口口口 |----|
4
口口口口 |①---|
口口口 |----|
口口口 |----|
口口口口 |----|
5
口口口口 |①---|
口口口口 |----|
口口口 |----|
口口口口 |----|
6
口口口口 |①---|
口口 |----|
口口 |----|
口口口口 |----|
7
口口口口 |①---|
口口口口 |----|
口口 |----|
口口口口 |----|
8
口口口口 |①---|
口口口口 |----|
口口①口 |----|
口口口口 |----|
9
口口口口 |①---|
①口口① |----|
口口口口 |----|
口口口口 |----|
10
口口口口 |①---|
口口口口 |----|
口 |----|
口 |----|
11
口口口口 |①---|
口口口口 |----|
口口口口 |----|
口 |----|
12
口口口口 |①---|
口口①口 |----|
口口②口 |②---|
口口口口 |----|
13
口口口口 |①---|
口①口口 |----|
口②口口 |②---|
口口口口 |----|
14
口口口口 |①---|
口口口口 |②---|
①口口① |----|
②口口② |----|
15
口口口口 |①---|
口口口口 |----|
口口口口 |----|
口①①口 |----|
16
口口口口 |①---|
口①口口 |----|
口②口口 |②---|
口口口口 |----|
17
口口口口 |①---|
口口①口 |----|
口口②口 |②---|
口口口口 |----|
18
口口口口 |①---|
口口口口 |----|
口口口口 |----|
①口口① |----|
19
口口口口 |----|
口口口口 |----|
口口口口 |----|
口口口口 |----|
20
口口 |①---|
口口 |②---|
口①①口 |----|
口口口口 |----|
21
口口口口 |----|
口口 |----|
口口口口 |①---|
口口口口 |----|
22
口口口口 |①---|
口口口口 |②---|
① |----|
口 |----|
23
口口口口 |----|
口口口口 |①---|
口口口口 |----|
口 |----|
24
口口口口 |①---|
②③④口 |②---|
①口口口 |③---|
口口口口 |④---|
25
口口口口 |①---|
口口口① |②---|
口④③② |③---|
口口口口 |④---|
26
口口口口 |①---|
口口口 |----|
口口口 |----|
口口口口 |----|
27
口口口口 |①---|
口口口口 |----|
口口口 |----|
口口口口 |----|
28
①②③④ |①---|
口口口口 |②---|
口口口口 |③---|
口口口口 |④---|
29
口口口口 |①---|
④③②① |②---|
口口口口 |③---|
口口口口 |④---|
30
口口口口 |①---|
口口口口 |②---|
①②③④ |③---|
口口口口 |④---|
31
口口口口 |①---|
口口口口 |----|
口口口口 |----|
口口口① |----|
32
④口口口 |①---|
③口口口 |②---|
②口口口 |③---|
①口口口 |④---|
33
口①口口 |①---|
口②口口 |②---|
口③口口 |③---|
口④口口 |④---|
34
口口④口 |①---|
口口③口 |②---|
口口②口 |③---|
口口①口 |④---|
35
口口口① |①---|
口口口口 |----|
口口口口 |----|
口口口口 |----|
36
口口口口 |----|
口口口口 |----|
口口口口 |----|
口口口口 |----|
37
口口口口 |①---|
口口口口 |----|
口口口口


口口口口
口口口口
|②---|
口口口 |----|
38
口口口口 |①---|
口 |----|
口口口
口口口口


口口口
口口口口 |②---|
口口口口 |----|
39
口口口 |①---|
口①④口 |②---|
口③②口 |③---|
口口口口 |④---|
40
口①②口 |①---|
口口口口 |②---|
口口口口 |----|
口口口口 |----|
41
口口口口 |①---|
口口口口 |----|
口口口口


口口口口
口口口口
|②---|
口口口 |----|
42
口口口口 |①---|
口 |----|
口口口
口口口口


口口口
口口口口 |②---|
口口口口 |----|
43
口口口 |①---|
口①④口 |②---|
口③②口 |③---|
口口口口 |④---|
44
③①②③ |①---|
口口口口 |②---|
口口口口 |③---|
口口口口 |----|
45
口口口口 |①---|
口口 |----|
口口
口口口口

口口口口
口口
口口口 |②---|
口口口口 |----|
46
口口口口 |①---|
口口 |----|
口口
口口口口

口口口口
口口
口口 |②---|
口口口口 |----|
47
口口口口 |①---|
口口 |----|
口口
口口口口

口口口口
口口口
口口口 |②---|
口口口口 |----|
48
口口口口 |①---|
口口 |----|
口口
口口口口

口口口口
口口口
口口口 |②---|
口口口口 |----|
49
口④口口 |①---|
口③口口 |②---|
口②口口 |③---|
口①口口 |④---|
50
口口④口 |①---|
口口③口 |②---|
口口②口 |③---|
口口①口 |④---|
51
①口口口 |①---|
口口口② |②---|
③口口口 |③---|
口口口④ |④---|
52
口口口④ |①---|
③口口口 |②---|
口口口② |③---|
①口口口 |④---|
53
口口口口 |①---|
口口口口 |----|
口口口口


口口口口
口口口口
|②---|
口口口 |----|
54
口口口口 |①---|
口 |----|
口口口
口口口口


口口口
口口口口 |②---|
口口口口 |----|
55
口口口 |①---|
口①④口 |②---|
口③②口 |③---|
口口口口 |④---|
56
口①②口 |①---|
口口口口 |②---|
口口口口 |----|
口口口口 |----|
57
口口口口 |①---|
口口口口 |----|
口口口口


口口口口
口口口口
|②---|
口口口 |----|
58
口口口口 |①---|
口 |----|
口口口
口口口口


口口口
口口口口 |②---|
口口口口 |----|
59
口口口 |①---|
口①④口 |②---|
口③②口 |③---|
口口口口 |④---|
60
③①②③ |①---|
口口口口 |②---|
口口口口 |③---|
口口口口 |----|
61
口口口口 |①---|
口口 |----|
口口
口口口口

口口口口
口口
口口口 |②---|
口口口口 |----|
62
口口口口 |①---|
口口 |----|
口口
口口口口

口口口口
口口
口口 |②---|
口口口口 |----|
63
口口口口 |①---|
口口 |----|
口口
口口口口

口口口口
口口口
口口口 |②---|
口口口口 |----|
64
口口口口 |①---|
口口 |----|
口口
口口口口

口口口口
口口口
口口口 |②---|
口口口口 |----|
65
口④口口 |①---|
口③口口 |②---|
口②口口 |③---|
口①口口 |④---|
66
口口④口 |①---|
口口③口 |②---|
口口②口 |③---|
口口①口 |④---|
67
口③③口 |①---|
①④④② |②---|
口口口口 |③---|
口口口口 |④---|
68
口口口口 |①---|
口口口口 |②---|
④①①④ |③---|
③②②③ |④---|
69
口 |①---|
口 |----|
口口口口 |----|
口口口口 |----|
70
口口口口 |①---|
口 |----|
口口口口 |----|
口口口口 |----|
71
口口口口 |①---|
口 |----|
口 |----|
口口口口 |----|
72
口口口口 |----|
口口口口 |----|
口口口口 |----|
口口口口 |----|
73
口口口口 |----|
口口口口 |----|
口口口口 |----|
口口口口 |----|
74
口口口口 |----|
口口口口 |----|
口口口口 |----|
口口口口 |----|
75
口口口口 |①---|
口口口口 |----|
口 |----|
口口口口 |----|

不確定度: 0

最終更新:2015年11月01日 03:00