走れメロンパン [2]
日向美ビタースイーツ♪

ADVANCED

Level: 6
BPM: 170
Notes: 316

1
口口口口 |----|
口口口口 |----|
口口口口 |----|
口口口口 |----|
2
口口口口 |①---|
口口 |----|
口口 |----|
口口口口 |----|
3
口口口口 |----|
口口口 |----|
口口口 |----|
口口口口 |①---|
4
口口口口 |①---|
口口 |----|
口口 |----|
口口口口 |----|
5
口口口口 |----|
口口口 |----|
口口口 |----|
口口口口 |①---|
6
口口口口 |①---|
口口 |----|
口口 |----|
口口口口 |----|
7
口口口口 |----|
口口口 |----|
口口口 |----|
口口口口 |①---|
8
口口口口 |①---|
口口 |----|
口口
口口口口

口口口口
口口口
口口口 |②---|
口口口口 |----|
9
口①①口 |①---|
口②②口 |----|
口口口口 |②---|
口口口口 |----|
10
口口口口 |①---|
口口口口 |----|
口①①口 |----|
口口口口 |----|
11
口口口口 |----|
口口口口 |----|
口口口口 |--①-|
①②③口 |②-③-|
12
口口口口 |--①-|
④⑤⑥口 |②-③-|
①②③口 |--④-|
口口口口 |⑤-⑥-|
13
口口口口 |①---|
口④④① |②---|
口③③口 |③---|
口②②口 |④---|
14
口口口口 |①---|
①口口① |②---|
②口口② |----|
口口口口 |----|
15
口口口口 |----|
口口口口 |----|
口口口口 |--①-|
①②③口 |②-③-|
16
口口口口 |--①-|
⑤口口④ |②-③-|
①②③口 |--④-|
口口口口 |--⑤-|
17
口①①口 |①---|
口②②口 |②---|
口③③口 |③---|
口④④口 |④---|
18
口口口口 |①---|
口口口口 |----|
口口口口 |----|
①口口① |----|
19
口口口口 |----|
口口口口 |----|
③口口口 |--①-|
①口口② |②-③-|
20
|①---|
口口口口 |②---|
口口口① |----|
口口口口 |----|
21
口口口 |----|
口口口口 |①---|
口口口④ |--②-|
③口口② |③-④-|
22
口 |①---|
口口口口 |②---|
①口口口 |----|
口口口口 |----|
23
口口口 |----|
口口口口 |①---|
口口口口 |--②-|
口②②口 |----|
24
口口口口 |①---|
口①②口 |②---|
口口③口 |③---|
口口口④ |④---|
25
口 |①---|
口②①口 |②---|
口③口口 |③---|
口口口口 |--④-|
26
口口口口 |----|
口口口口 |----|
口口口口 |----|
口口口口 |----|
27
口口口 |①---|
口口口口 |----|
口口口口 |----|
口口口口 |----|
28
口口口③ |①---|
口口口④ |②---|
口②①口 |③---|
口口口口 |④---|
29
③口口口 |①---|
④口口口 |②---|
口①②口 |③---|
口口口口 |④---|
30
口②①口 |①---|
口④③口 |②---|
口口口口 |③---|
口口口口 |④---|
31
口口口口 |①---|
口口口口 |----|
口①①口 |----|
口口口口 |----|
32
口口口③ |①---|
口口口④ |②---|
口②①口 |③---|
口口口口 |④---|
33
③口口口 |①---|
④口口口 |②---|
口①②口 |③---|
口口口口 |④---|
34
口②①口 |①---|
口④③口 |②---|
口口口口 |③---|
口口口口 |④---|
35
口口口口 |①---|
口口口口 |----|
口①①口 |----|
口口口口 |----|
36
口口 |----|
口口口口 |----|
口①口口 |--①-|
口口口口 |--②-|
37
口口口 |--①-|
口口 |--②-|
口口口口
口口①口

口口口口

口口口口 |--③-|
口③口口 |--④-|
38
口③③② |--①-|
口口口 |--②-|
口口①口 |--③-|
口口口口 |----|
39
口口口口 |①---|
②口口② |②---|
①⑥⑤① |③-④-|
口④③口 |⑤-⑥-|
40
口口 |--①-|
①口口① |----|
口②口口 |--②-|
口口口口 |--③-|
41
口口口 |--①-|
口口 |--②-|
口口口口
口口①口

口口口口

口口口口 |--③-|
口③口口 |--④-|
42
口③③② |--①-|
口口口 |--②-|
口口①口 |--③-|
口口口口 |----|
43
口口口口 |①---|
②口口② |②---|
①⑥⑤① |③-④-|
口④③口 |⑤-⑥-|
44
口②①口 |--①-|
口口③口 |②-③-|
口口口口 |----|
口口口口 |----|
45
口口口① |①---|
口口②口 |②---|
口③口口 |③---|
④口口口 |④---|
46
③口口③ |①---|
②口口② |②---|
①口口① |③---|
口口口口 |----|
47
②④口口 |①---|
口口口口 |②---|
①③口口 |③---|
口口口口 |④---|
48
口口②口 |①---|
口口口口 |②---|
口口①③ |③---|
口口口口 |----|
49
口④④口 |①---|
口③③口 |②---|
口②②口 |③---|
口①①口 |④---|
50
④口口④ |①---|
③口口③ |②---|
②口口② |③---|
①口口① |④---|
51
④口口④ |①---|
③口口③ |②---|
口②②口 |③---|
口①①口 |④---|
52
口口 |①---|
口口口口 |②---|
②③口② |--③-|
①口口① |--④-|
53
口口口 |--①-|
口口 |--②-|
口口口口
口口①口

口口口口

口口口口 |--③-|
口③口口 |--④-|
54
口③③② |--①-|
口口口 |--②-|
口口①口 |--③-|
口口口口 |----|
55
口口口口 |①---|
②口口② |②---|
①⑥⑤① |③-④-|
口④③口 |⑤-⑥-|
56
口口 |--①-|
口①①口 |----|
口②口口 |--②-|
口口口口 |--③-|
57
口口口 |--①-|
口口 |--②-|
口口口口
口口①口

口口口口

口口口口 |--③-|
口③口口 |--④-|
58
口③③② |--①-|
口口口 |--②-|
口口①口 |--③-|
口口口口 |----|
59
口口口口 |①---|
②口口② |②---|
①⑥⑤① |③-④-|
口④③口 |⑤-⑥-|
60
口②①口 |--①-|
口口③口 |②-③-|
口口口口 |----|
口口口口 |----|
61
口口口① |①---|
口口②口 |②---|
口③口口 |③---|
④口口口 |④---|
62
③口口③ |①---|
②口口② |②---|
①口口① |③---|
口口口口 |----|
63
②④口口 |①---|
口口口口 |②---|
①③口口 |③---|
口口口口 |④---|
64
口口②口 |①---|
口口口口 |②---|
口口①③ |③---|
口口口口 |----|
65
口④④口 |①---|
口③③口 |②---|
口②②口 |③---|
口①①口 |④---|
66
④口口④ |①---|
③口口③ |②---|
②口口② |③---|
①口口① |④---|
67
③③③③ |①---|
④④④④ |②---|
口②②口 |③---|
口①①口 |④---|
68
口④ |①---|
③③③③ |②---|
①①①① |③---|
②②②② |④-⑤-|
69
口口口口 |----|
口口口口 |----|
口口口口 |----|
口口口口 |----|
70
口 |①---|
口口口口 |----|
口口口口
口口口口

口口
口口口口
口口口口 |--②-|
口口口口 |----|
71
口口口口 |①---|
口 |----|
口 |----|
口口口口 |----|
72
口口口口 |----|
口口口口 |----|
口口口口 |----|
口口口口 |----|
73
口口口口 |----|
口口口口 |----|
口口口口 |----|
口口口口 |----|
74
口口口口 |----|
口口口口 |----|
口口口口 |----|
口口口口 |----|
75
口口口口 |①---|
口 |----|
口口口口 |----|
口口口口 |----|

不確定度: 0

最終更新:2015年11月01日 02:58