STELLAR WIND
L.E.D.

ADVANCED

Level: 9
BPM: 160
Notes: 713

1
口口口口 |----|
口口口口 |----|
口口口口 |----|
口口口口 |----|
2
口①①⑦ |①-②-|
②③⑤② |----|
②③⑥② |--③-|
口①①④ |④⑤⑥⑦|
3
①口口口 |①---|
②口口口 |②---|
③口口① |③---|
④口口口 |④---|
4
①口③口 |①---|
②口口③ |②---|
③口口口 |③---|
④口口口 |④---|
5
①口口口 |①---|
②口口口 |②---|
③口①口 |③---|
④口口① |④---|
6
①口③口 |①---|
②口口③ |②---|
③口口① |③---|
④口①口 |④---|
7
①口口口 |①---|
②口口口 |②---|
③口口① |③---|
④口①口 |④---|
8
①口口③ |①---|
②口③口 |②---|
③口口口 |③---|
④口口口 |④---|
9
①②口口 |①-②-|
③④口口 |③-④-|
⑤⑥①口 |⑤-⑥-|
⑦⑧口① |⑦-⑧-|
10
①⑤口① |①--②|
口②口② |--③-|
③口口③ |-④--|
④口④⑥ |⑤-⑥-|
11
①口口① |①--②|
③口②口 |③-④-|
口口口④
口口口口

口口⑦⑧
口口口口
⑤口口口 |⑤⑥--|
⑦口⑥口 |⑦-⑧-|
12
①口口口 |①--②|
③口⑤④ |③-④-|
⑤口②⑥ |⑤--⑥|
⑦口⑧① |⑦-⑧-|
13
①口口口 |①--②|
③口口④ |③-④-|
口口②口
口口口①

口口⑤口
口口口口
⑤口口口 |-⑤--|
⑥口⑥⑦ |⑥-⑦-|
14
①口口① |①--②|
③口②口 |③-④-|
口口口④
口口口口

口口⑦⑧
口口口口
⑤口口口 |⑤⑥--|
⑦口⑥口 |⑦-⑧-|
15
①口口口 |①--②|
③口口④ |③-④-|
口口②口
口口口①

口口⑥口
口口口口
⑤口口口 |⑤⑥--|
⑦口⑦⑧ |⑦-⑧-|
16
①口⑧① |①--②|
③口②⑥ |③-④-|
⑤口⑤④ |⑤--⑥|
⑦口口口 |⑦-⑧-|
17
①②口口 |①-②③|
④⑤⑤口 |④-⑤-|
口口口③
口口①口

口口口⑦
口口口口
⑥⑧口口 |⑥⑦⑧-|
⑨⑩⑨⑩ |⑨-⑩-|
18
①口①⑥ |①--②|
②④⑤② |--③-|
③⑤③④ |④--⑤|
口⑥口口 |--⑥-|
19
①口口口 |①--②|
③口⑥② |③-④-|
⑤口⑦⑧ |⑤⑥--|
⑦口④① |⑦-⑧-|
20
①口口口 |①--②|
③口⑥② |③-④-|
⑤口⑦⑧ |⑤⑥--|
⑦口④① |⑦-⑧-|
21
①口⑧⑤ |①--②|
③口口② |③-④-|
⑤口口⑥ |⑤--⑥|
⑦口④① |⑦-⑧-|
22
①口⑧⑤ |①--②|
③口②口 |③-④-|
⑤口⑥口 |⑤--⑥|
⑦口④① |⑦-⑧-|
23
①口口口 |①--②|
③口⑥② |③-④-|
⑤口⑦⑧ |⑤⑥--|
⑦口④① |⑦-⑧-|
24
①口口口 |①--②|
③口⑥② |③-④-|
⑤口⑦⑧ |⑤⑥--|
⑦口④① |⑦-⑧-|
25
①口⑧⑤ |①--②|
③口口② |③-④-|
⑤口口⑥ |⑤--⑥|
⑦口④① |⑦-⑧-|
26
①口⑧⑤ |①--②|
③口②口 |③-④-|
⑤口⑥口 |⑤--⑥|
⑦口④① |⑦-⑧-|
27
①口口口 |①--②|
③口⑥② |③-④-|
⑤口⑦⑧ |⑤⑥--|
⑦口④① |⑦-⑧-|
28
①口口口 |①--②|
③口⑥② |③-④-|
⑤口⑦⑧ |⑤⑥--|
⑦口④① |⑦-⑧-|
29
①口⑧⑤ |①--②|
③口口② |③-④-|
⑤口口⑥ |⑤--⑥|
⑦口④① |⑦-⑧-|
30
①口⑧⑤ |①--②|
③口②口 |③-④-|
⑤口⑥口 |⑤--⑥|
⑦口④① |⑦-⑧-|
31
①②口口 |①-②③|
④⑤⑦③ |④-⑤-|
⑥⑧⑨⑩ |⑥⑦⑧-|
⑨⑩⑤① |⑨-⑩-|
32
①②口口 |①-②③|
④⑤⑦③ |④-⑤-|
⑥⑧⑨⑩ |⑥⑦⑧-|
⑨⑩⑤① |⑨-⑩-|
33
①口口口 |①--②|
口②口② |--③-|
口③口口
口口③①

⑦口⑧④
④口口口
⑤口口⑥ |④⑤-⑥|
口口口口 |⑦-⑧-|
34
口③口口 |①--②|
④①②口 |--③④|
口②口口
口口③①

⑥口⑪⑤
口⑩口口
口口⑧⑫ |⑤⑥⑦⑧|
⑦⑨口口 |⑨⑩⑪⑫|
35
口口⑥口 |①--②|
口口④① |--③-|
口口口⑤ |-④--|
口口②③ |⑤--⑥|
36
口口口① |--①-|
口口⑤③ |-②--|
口口②口 |③--④|
口口④口 |--⑤-|
37
口口①④ |①--②|
口口⑤口 |--③-|
口口③② |-④--|
口口口⑥ |⑤--⑥|
38
口口口③ |--①-|
口口口② |-②--|
口口④⑤ |③--④|
口口①口 |--⑤-|
39
口口口⑤ |①--②|
口口②③ |--③-|
口口⑥口 |-④--|
口口④① |⑤--⑥|
40
口口②口 |--①-|
口口④⑤ |-②--|
口口口① |③--④|
口口口③ |--⑤-|
41
口口②③ |①--②|
口口口⑤ |--③-|
口口④① |-④--|
口口⑥口 |⑤--⑥|
42
口口④⑤ |--①-|
口口②口 |-②--|
口口口③ |③--④|
口口口① |--⑤-|
43
口口⑥口 |①--②|
口口④① |--③-|
①口口⑤ |-④--|
口口②③ |⑤--⑥|
44
口口口① |--①-|
口口口③ |-②--|
口口②口 |③--④|
口口④⑤ |--⑤-|
45
口口②③ |①--②|
口口口⑤ |--③-|
口口④① |-④--|
口口⑥口 |⑤--⑥|
46
口口④⑥ |--①-|
口口②口 |-②--|
口口口③ |③--④|
⑤口口① |⑤-⑥-|
47
⑥口⑦口 |①--②|
①口④① |--③-|
口口口⑤ |-④--|
口口②③ |⑤-⑥⑦|
48
口口口② |①-②-|
口口口口 |-③--|
①口③口
口口口口

口口⑤⑥
口⑥口口
口口口④ |④--⑤|
口口口口 |--⑥-|
49
口口口口 |①--②|
③口口① |--③④|
④口②③
口①口口

口⑧口口
口⑨⑥⑦
口口口口 |⑤⑥--|
⑤口⑨口 |⑦-⑧⑨|
50
①口口⑧ |①-②-|
③口④⑤ |③④--|
⑤①⑥口 |⑤--⑥|
⑦口口② |⑦-⑧-|
51
口口口口 |----|
口口口口 |----|
口口口口 |----|
口口口口 |----|
52
①口⑧口 |①--②|
③口⑥① |③-④-|
⑤口口⑦ |⑤⑥--|
⑦口②④ |⑦--⑧|
53
①口口② |①-②-|
③口⑧⑤ |③④--|
⑤口④口 |⑤--⑥|
⑦口⑥口 |⑦-⑧-|
54
①口①⑥ |①--②|
③口⑦口 |③-④-|
⑤口④② |⑤⑥--|
⑦口口⑧ |⑦--⑧|
55
①口口⑤ |①-②-|
③口口④ |③④--|
⑤口⑥⑧ |⑤--⑥|
⑦口②口 |⑦-⑧-|
56
①口口⑦ |①--②|
③口②④ |③-④-|
⑤口⑧口 |⑤⑥--|
⑦口⑥① |⑦--⑧|
57
①口④口 |①-②-|
③口⑥⑧ |③④--|
⑤口口② |⑤--⑥|
⑦口口⑤ |⑦-⑧-|
58
①口②④ |①--②|
③口口⑦ |③-④-|
⑤口⑥① |⑤⑥--|
⑦口⑧口 |⑦--⑧|
59
①口⑥⑧ |①-②-|
③口④口 |③④--|
⑤口口⑤ |⑤--⑥|
⑦口口② |⑦-⑧-|
60
①口⑧口 |①--②|
③口⑥① |③-④-|
⑤口口⑦ |⑤⑥--|
⑦口②④ |⑦--⑧|
61
①口口② |①-②-|
③口口⑤ |③④--|
⑤口④口 |⑤--⑥|
⑦口⑥⑧ |⑦-⑧-|
62
①口②④ |①--②|
③口口⑦ |③-④-|
⑤口⑥① |⑤⑥--|
⑦口⑧口 |⑦--⑧|
63
①口⑦⑨ |①-②-|
③口④口 |③④--|
⑤⑥口⑤ |⑤-⑥⑦|
⑧⑨口② |⑧-⑨-|
64
①口⑧口 |①--②|
③口⑥① |③-④-|
⑤口口⑦ |⑤⑥--|
⑦口②④ |⑦--⑧|
65
①口口② |①-②-|
③口口口 |③④--|
口口④口
口口口口

口口⑥⑧
口口口口
⑤口口⑤ |⑤--⑥|
⑦口口口 |⑦-⑧-|
66
①②口口 |①-②③|
④⑤口① |④-⑤-|
口口③⑤
口口口口

口口口口
口口⑦⑨
⑥⑧口口 |⑥⑦⑧-|
⑨⑩⑪口 |⑨-⑩⑪|
67
①②口⑩ |①-②-|
③⑤④⑥ |③④⑤-|
⑥⑦⑧口 |⑥-⑦⑧|
⑨⑩口② |⑨-⑩-|
68
①⑥④口 |①②③④|
⑤口②口 |⑤-⑥⑦|
口口⑦①
口口③⑤

口口口⑩
口⑪⑬⑧
⑧⑨口⑫ |⑧⑨⑩-|
⑪口⑭口 |⑪⑫⑬⑭|
69
①口①口 |①--②|
③口口④ |③-④-|
口口②口
口口口口

口口⑨口
口口⑥口
⑤口口口 |⑤-⑥-|
⑦口⑧⑤ |⑦⑧-⑨|
70
①口口② |①②③④|
⑤⑥口④ |⑤-⑥⑦|
口①⑦③
口⑤口口

口⑧⑪⑬
口口⑩口
⑧⑫口口 |⑧⑨⑩-|
⑪口⑭⑨ |⑪⑫⑬⑭|
71
①口⑥口 |①---|
②口③① |②---|
③口④口 |③-④-|
⑤口⑦口 |⑤⑥-⑦|
72
①③口② |①②③④|
⑤⑥⑦④ |⑤-⑥⑦|
⑧⑩⑨口 |⑧⑨⑩-|
⑪⑬⑭⑫ |⑪⑫⑬⑭|
73
①②⑨口 |①-②③|
④⑤⑥口 |④-⑤-|
⑥⑦⑦③ |⑥-⑦-|
⑧⑩口口 |⑧⑨⑩-|
74
口①口口 |①②③④|
⑥口⑤③ |⑤-⑥⑦|
口口口④
口口②⑦

⑪口⑬⑧
口⑩口口
⑨口口口 |⑧⑨⑩-|
⑭口⑫口 |⑪⑫⑬⑭|
75
⑩③口⑩ |①②-③|
⑧口②⑧ |④-⑤⑥|
⑤①④⑥ |-⑦⑧-|
⑨⑦⑦⑨ |⑨-⑩-|
76
口口口口 |①---|
口①①口 |----|
口①①口 |----|
口口口口 |----|


不确定度: 0

タグ:

+ タグ編集
  • タグ:

このサイトはreCAPTCHAによって保護されており、Googleの プライバシーポリシー利用規約 が適用されます。

最終更新:2012年11月10日 14:02