We're so Happy [2]
Ryu☆

BASIC

Level: 4
BPM: 185
Notes: 268

1
口口口口 |----|
口口口口 |----|
口口口口 |----|
口口口口 |----|
2
口口口口 |①---|
口①口口 |----|
口口口口 |----|
口口口口 |----|
3
口口口口 |①---|
口口①口 |----|
口口口口 |----|
口口口口 |----|
4
口口口口 |①---|
口口口口 |----|
口①口口 |----|
口口口口 |----|
5
口口口口 |①---|
口口口口 |----|
口口①口 |----|
口口口口 |----|
6
口口口口 |①---|
口口口口 |----|
口口口口 |----|
口①①口 |----|
7
口口口口 |①---|
口口口口 |----|
口①①口 |----|
口口口口 |----|
8
口口口口 |①---|
口口口口 |----|
口口口口 |----|
口①①口 |----|
9
口口口口 |①---|
口口口口 |----|
口①①口 |----|
口口口口 |----|
10
口口口口 |①---|
①口口① |----|
①口口① |----|
口口口口 |----|
11
口口 |①---|
口口 |--②-|
③② |--③-|
口①①口 |--④-|
12
口口口口 |----|
口口口口 |----|
口口 |--①-|
口口口口 |----|
13
口口口口 |①---|
口①口口 |----|
口口口口 |----|
口口口口 |----|
14
口口口口 |①---|
口口①口 |----|
口口口口 |----|
口口口口 |----|
15
口口口 |①---|
口口口 |--②-|
②③口 |--③-|
口①①口 |--④-|
16
口口口口 |----|
口口口口 |----|
口口口 |--①-|
口口口口 |----|
17
口口口口 |①---|
口口①口 |----|
口口口口 |----|
口口口口 |----|
18
口口口口 |①---|
口①口口 |----|
口口口口 |----|
口口口口 |----|
19
口口 |①---|
口口 |--②-|
③② |--③-|
口①①口 |--④-|
20
口口口口 |----|
口口口口 |----|
口口 |--①-|
口口口口 |----|
21
口口口 |①---|
口口口 |--②-|
②③口 |--③-|
口①①口 |--④-|
22
口口口口 |----|
口口口口 |--①-|
口口口 |----|
口口口口 |----|
23
口口口口 |①---|
①口口口 |----|
口口口口 |----|
口口口口 |----|
24
口口口口 |①---|
口①口口 |----|
口口口口 |----|
口口口口 |----|
25
口口口口 |①---|
口口口口 |----|
口②①口 |②---|
口口口口 |----|
26
口口口口 |①---|
①口口① |----|
①口口① |----|
口口口口 |----|
27
口口口口 |①---|
口口口
口口口
口口口口

口口口口
口口③口 |②-③-|
④⑤口 |--④-|
口口口口 |--⑤-|
28
口口口口 |--①-|
①③口② |--②-|
口口④口 |--③-|
口口口口 |④---|
29
口口口口 |①---|
口口口
口口口
口口口口

口口口口
口口③口 |②-③-|
④⑤口 |--④-|
口口口口 |--⑤-|
30
口口口口 |--①-|
①③口② |--②-|
口口④口 |--③-|
口口口口 |④---|
31
口口口口 |①---|
口口口
口口口
口口口口

口口口口
口口③口 |②-③-|
④⑤口 |--④-|
口口口口 |--⑤-|
32
口口口口 |--①-|
①③口② |--②-|
口口④口 |--③-|
口口口口 |④---|
33
口口口口 |①---|
口口口
口口口
口口口口

口口口口
口口③口 |②-③-|
④⑤口 |--④-|
口口口口 |--⑤-|
34
口口口口 |--①-|
①口③② |--②-|
口④口口 |--③-|
口口口口 |④---|
35
口口 |①---|
口口 |----|
口口
口口

口口
口口口口
口口口口 |----|
口口口口 |②---|
36
口口 |①---|
口口 |----|
口口
口口

口口
口口口口
口口口口 |----|
口口口口 |②---|
37
口口 |①---|
口口 |----|
口口
口口

口口口口
口口口口
口口口口 |----|
口口 |②---|
38
口口 |①---|
口口 |----|
口口
口口

口口口口
口口口口
口口口口 |----|
口口 |②---|
39
口口口口 |①---|
口②口口 |----|
口①口口 |②---|
口口口口 |----|
40
口口口口 |①---|
口口②口 |----|
口口①口 |②---|
口口口口 |----|
41
口 |①---|





|--②-|
|----|
口 |③---|
42
口口口口 |----|
口口口口 |----|
口口口口 |----|
口口口口 |----|
43
|①---|
口口口口 |----|
口口口口 |----|
口口口口 |----|
44
口口口口 |①---|
口口口口 |----|
口①①口 |----|
口口口口 |----|
45
口口 |①---|
口口 |--②-|
③② |--③-|
口①①口 |--④-|
46
口口口口 |----|
口口口口 |----|
口口 |--①-|
口口口口 |----|
47
口口口 |①---|
口口口 |--②-|
②③口 |--③-|
口①①口 |--④-|
48
口口口口 |----|
口口口口 |----|
口口口 |--①-|
口口口口 |----|
49
口口 |①---|
口口 |--②-|
③② |--③-|
口①①口 |--④-|
50
口口口 |----|
口口口 |----|
口口 |①---|
口口口口 |----|
51
口口 |①---|
口 |----|
口口口口 |----|
口口口口 |----|
52
口口口口 |----|
口口 |----|
口口口口 |----|
口口口口 |①---|
53
口口 |①---|
口口 |--②-|
③② |--③-|
口①①口 |--④-|
54
口口口口 |----|
口口口口 |----|
口口 |--①-|
口口口口 |----|
55
口口口 |①---|
口口口 |--②-|
②③口 |--③-|
口①①口 |--④-|
56
口口口口 |----|
口口口口 |--①-|
口口口 |----|
口口口口 |----|
57
口口口口 |①---|
口 |----|
口 |----|
口 |----|
58
口口口口 |①---|
②③④口 |②---|
口口口口 |③---|
口 |④---|
59
口口口口 |①---|
口口口口

口口口口

口口口口
|--②-|
口口口
口口口口


口口口
口口口口 |----|
口口口口 |③---|
60
口口口口 |----|
口口口口 |----|
口口口口 |----|
口口口口 |----|
61
口口① |①---|
口②口口 |----|
口口口口 |②---|
口口口口 |----|
62
口口口口 |①---|
口口①② |----|
口口口口 |②---|
口口口口 |----|
63
口口口口 |①---|
口口口口 |----|
口口②① |②---|
口口口口 |----|
64
口口口口 |①---|
口口口口 |----|
②①口口 |②---|
口口口口 |----|
65
①②口口 |①---|
①口口口 |----|
口口口口 |②---|
口口口口 |----|
66
口口①② |①---|
口口口口 |----|
口口口口 |②---|
口口口口 |----|
67
口口口口 |①---|
口口口口 |----|
口口②① |②---|
口口口口 |----|
68
口口口口 |①---|
口口口口 |----|
②①口口 |②---|
口口口口 |----|
69
口 |①---|
口 |----|
口 |----|
口 |----|
70
口口口口 |----|
口口口口 |----|
口口口口 |----|
口口口口 |----|
71
口口口口 |----|
口口口口 |----|
口口口口 |①---|
口 |----|
72
口口口口 |①---|
①口口① |----|
①口口① |----|
口口口口 |----|
73
口①①口 |①---|
口口口口 |----|
口口口口 |----|
口口口口 |----|
74
口口口口 |①---|
口①①口 |----|
口口口口 |----|
口口口口 |----|
75
口口口口 |①---|
口口口口 |----|
①②口口 |②---|
口口口口 |----|
76
口口口口 |①---|
口口口口 |----|
口口①② |②---|
口口口口 |----|
77
口口口口 |----|
口②口口 |①---|
口①②口 |----|
口口口口 |②---|
78
口口口口 |----|
①口口② |----|
①口口② |①---|
口口口口 |②---|
79
口② |①---|
口③ |--②-|
|--③-|
口口 |--④-|
80
口口口口 |----|
口口口口 |----|
口口口 |--①-|
口口 |----|
81
②口口 |①---|
③口口 |--②-|
|--③-|
口口口 |--④-|
82
口口口口 |----|
口口口口 |----|
口口口 |--①-|
口口口 |----|
83
口② |①---|
口③ |--②-|
|--③-|
口口 |--④-|
84
口口 |----|
口口 |①---|
|②---|
口口 |----|
85
口口口 |①---|
口口口 |----|
口 |----|
口口口口 |----|
86
口口口口 |----|
口口口口 |----|
口口口 |----|
口口口口 |①---|
87
口② |①---|
口口 |--②-|
口口
口口

口口口口
口口口③
口口口④ |--③-|
口口 |--④-|
88
②口口 |①---|
口口口 |--②-|
口口
口口

口口口口
③口口口
④口口口 |--③-|
口口口 |--④-|
89
口② |①---|
口口 |--②-|
口口
口口

口口口口
口口口③
口口口④ |--③-|
口口 |--④-|
90
②口口 |①---|
口口口 |--②-|
口口
口口

口口口口
③口口口
④口口口 |--③-|
口口口 |--④-|
91
口口 |①---|
口口 |----|
口口 |----|
口口 |----|
92
口口口口 |①---|
②③④口 |②---|
口口口口 |③---|
口口 |④---|
93
口口口口 |①---|
|--②-|
|----|
①①②② |③---|
94
口口口口 |----|
口口口口 |----|
口口口口 |----|
口口口口 |----|
95
口口口口 |①---|
口 |----|
口 |----|
口口口口 |----|

不確定度: 0

最終更新:2015年11月01日 02:39