freaky freak
kamome sano

EXTREME

Level: 10
BPM: 145
Notes: 874

1
③口口口 |①-②-|
口口口口 |③④--|
①口口②
口④口口

口口口口
口口⑦⑦
⑥⑥口口 |⑤--⑥|
口口⑤⑤ |--⑦-|
2
口口②① |--①-|
口口口口 |-②--|
口口①②
口口口口

口口口⑤
口口④③
口口⑤口 |③--④|
口口③④ |--⑤-|
3
③口口口 |①-②-|
口口口口 |③④--|
①口口②
口④口口

口口口口
口口⑦⑦
⑥⑥口口 |⑤--⑥|
口口⑤⑤ |--⑦-|
4
口口②① |--①-|
口口口口 |-②--|
口口①②
口口口口

口口口⑤
口口④③
口口⑤口 |③--④|
口口③④ |--⑤-|
5
③③口口 |①-②-|
口口口口 |③④--|
①①口②
口④口口

口口口口
⑦口⑧⑧
⑥⑥口口 |⑤--⑥|
口口⑤⑤ |⑦-⑧-|
6
口口④② |①-②-|
口③口口 |③④--|
口口②④
口①口口

口口口⑧
⑦口⑥⑤
口口⑧口 |⑤--⑥|
⑤口⑤⑥ |⑦-⑧-|
7
③③口口 |①-②-|
口口口口 |③④--|
①①口②
口④口口

口口口口
⑦口⑧⑧
⑥⑥口口 |⑤--⑥|
口口⑤⑤ |⑦-⑧-|
8
口口④② |①-②-|
口③口口 |③④--|
口口②④
口①口口

口口口⑧
⑦口⑥⑤
口口⑧口 |⑤--⑥|
⑤口⑤⑥ |⑦-⑧-|
9
①口①⑥ |①-②-|
⑦口⑦④ |③-④-|
⑤口⑤② |⑤-⑥-|
③口③⑧ |⑦-⑧-|
10
③口③口 |①-②-|
口口口④ |③-④-|
口口口②
①口①口

口口口⑥
口口口口
⑤口⑤口 |⑤-⑥-|
⑦口⑦⑧ |⑦-⑧-|
11
⑤口⑤⑧ |①-②-|
①⑥①④ |③-④-|
③口③口 |⑤-⑥-|
⑦②⑦口 |⑦-⑧-|
12
口②口口 |①-②-|
③口③口 |③-④-|
①口①④
口口口口

口口口口
口⑥口口
⑦口⑦口 |⑤-⑥-|
⑤口⑤⑧ |⑦-⑧-|
13
①②③④ |①-②-|
口口口⑤ |③-④-|
口口口⑥ |⑤-⑥-|
口口⑧⑦ |⑦-⑧-|
14
⑤⑥⑦⑧ |①-②-|
④口口口 |③-④-|
③口口口 |⑤-⑥-|
②①口口 |⑦-⑧-|
15
⑫⑧⑦⑪ |①②③④|
⑯②①⑮ |⑤⑥⑦⑧|
⑥⑭⑬⑤ |⑨⑩⑪⑫|
⑩④③⑨ |⑬⑭⑮⑯|
16
⑫④②⑭ |①②③④|
⑪③①⑬ |⑤⑥⑦⑧|
⑧⑯⑩⑥ |⑨⑩⑪⑫|
⑦⑮⑨⑤ |⑬⑭⑮⑯|
17
口口③口 |①②③④|
⑧④⑦口 |⑤⑥⑦⑧|
②口⑤①
⑥口口口

⑨⑩⑩口
口口口⑩
⑩口口口 |⑨---|
口⑩⑩⑨ |⑩---|
18
口⑥口④ |①②③-|
⑥口①口 |④⑤-⑥|
口②③⑤
口口口口

⑨口⑩口
口⑪口⑧
⑦口⑫口 |-⑦⑧⑨|
口⑬口口 |⑩⑪⑫⑬|
19
口⑥⑦① |①②③④|
⑥口②⑦ |⑤⑥-⑦|
口③口口
④口口⑤

⑨口口⑫
口⑩⑪口
⑧口口⑬ |-⑧⑨⑩|
口⑭口口 |⑪⑫⑬⑭|
20
④②⑥口 |①②③-|
口口口⑥ |④⑤-⑥|
⑤口①口
口口③口

口⑨口⑧
⑦口口口
口⑪口⑩ |-⑦⑧⑨|
⑬口⑫口 |⑩⑪⑫⑬|
21
⑦口口口 |-①②③|
口①口⑥ |④⑤⑥⑦|
⑤口②口
口③口④

口⑩⑨⑧
口口口口
口口口口 |-⑧⑨⑩|
⑭⑫⑪⑬ |⑪⑫⑬⑭|
22
口⑥口④ |①②③-|
⑥口①口 |④⑤-⑥|
口②③⑤
口口口口

⑨口⑩口
口⑪口⑧
⑦口⑫口 |-⑦⑧⑨|
口⑬口口 |⑩⑪⑫⑬|
23
口⑥⑦① |①②③④|
⑥口②⑦ |⑤⑥-⑦|
口③口口
④口口⑤

⑨口口⑫
口⑩⑪口
⑧口口⑬ |-⑧⑨⑩|
口⑭口口 |⑪⑫⑬⑭|
24
④②⑥口 |①②③-|
口口口⑥ |④⑤-⑥|
⑤口①口
口口③口

⑬口口⑫
⑦口口口
口口口⑧ |-⑦⑧⑨|
⑨⑪⑩口 |⑩⑪⑫⑬|
25
口⑩⑤口 |①②③④|
⑩②①⑤ |⑤---|
⑧④③⑨ |⑥⑦⑧⑨|
⑥口口⑦ |⑩---|
26
口⑥③④ |①②③-|
⑥口口③ |④⑤-⑥|
口②①⑤
口口口口

口口⑩口
口⑪口口
⑨口⑫口 |-⑦⑧⑨|
⑦⑬口⑧ |⑩⑪⑫⑬|
27
口⑥⑦① |①②③④|
⑥口②⑦ |⑤⑥-⑦|
口③口口
④口口⑤

⑨口口⑫
口⑩⑪口
⑧口口⑬ |-⑧⑨⑩|
口⑭口口 |⑪⑫⑬⑭|
28
④②⑥口 |①②③-|
口口口⑥ |④⑤-⑥|
⑤口①口
口口③口

口⑬口口
⑬⑦⑧口
口⑨⑩口 |-⑦⑧⑨|
口⑪⑫口 |⑩⑪⑫⑬|
29
口口口口 |-①②③|
口口⑦③ |④⑤⑥⑦|
④⑤⑥⑦
②口口①

⑩口口⑨
口⑭口口
口口口口 |-⑧⑨⑩|
⑫⑧⑬⑪ |⑪⑫⑬⑭|
30
口⑥③④ |①②③-|
⑥口口③ |④⑤-⑥|
口②①⑤
口口口口

口口⑩口
口⑪口口
⑨口⑫口 |-⑦⑧⑨|
⑦⑬口⑧ |⑩⑪⑫⑬|
31
口⑥⑦① |①②③④|
⑥口②⑦ |⑤⑥-⑦|
口③口口
④口口⑤

⑨口口⑫
口⑩⑪口
⑧口口⑬ |-⑧⑨⑩|
⑭口口口 |⑪⑫⑬⑭|
32
③③⑤口 |①-②-|
口口口⑤ |③④-⑤|
④②②口
口口①①

⑫口口⑪
⑥口口口
口口口⑦ |-⑥⑦⑧|
⑧⑩⑨口 |⑨⑩⑪⑫|
33
口口⑤口 |①②③④|
口②①⑤ |⑤---|
口④③口
口口口口

⑧⑪口⑪
⑨口⑪口
⑩口口口 |⑥--⑦--⑧-⑨-⑩-|
口⑥⑦口 |⑪---|
34
口口口⑦ |①-②-|
⑤口口③ |③④--|
口②①口 |⑤⑥--|
口⑥④口 |⑦---|
35
口口③口 |①②③-|
口②①③ |④⑤--|
口口⑤口
口④口⑤

口口口⑥
⑦口⑦口
口⑥口⑧ |⑥--⑦|
口⑧口口 |--⑧-|
36
口口口④ |①-②-|
⑤口口③ |③④-⑤|
口②①口
口口口口

⑥口⑦口
口⑧口口
口口⑨口 |⑥-⑦⑧|
⑪⑩⑪口 |⑨⑩⑪-|
37
口①口① |--①-|
口口口口 |-②--|
口②口②
口口口口

口⑥口口
⑥③④③
口口⑤口 |③-④⑤|
口口口口 |⑥---|
38
⑦⑦口③ |①-②-|
⑥⑥口口 |③④--|
⑤⑤④口 |⑤--⑥|
口②①口 |--⑦-|
39
口口⑤口 |①②③-|
口口口⑤ |④⑤--|
口④③口
口②①③

口口口⑥
口⑦口口
⑥口口口 |⑥--⑦|
⑧口⑦⑧ |--⑧-|
40
⑥⑥口⑦ |①-②-|
⑤⑤口③ |③④--|
口②①口 |⑤--⑥|
口口④口 |--⑦-|
41
口口口口 |①-②-|
口口③口 |③---|
口口②③
口①口口

④⑧⑫口
⑤⑨口⑫
⑥⑩口口 |④⑤⑥⑦⑧⑨⑩⑪|
⑦⑪口口 |⑫---|
42
②口⑦⑦ |①-②-|
⑧口⑤⑤ |③-④-|
口⑥③③ |⑤-⑥-|
④口①① |⑦-⑧-|
43
口口口口 |①-②-|
口口口② |③-④-|
③③口口
①①口④

口⑤⑦⑤
⑥口口口
口⑦⑥口 |⑤--⑥|
口口口口 |--⑦-|
44
③④⑨口 |①-②-|
口⑩⑥⑤ |③④-⑤|
⑦⑧口① |⑥-⑦⑧|
①口②② |--⑨-⑩-|
45
口⑥口口 |①-②-③-|
口口口⑤ |④---⑤----⑥--|
④口①口
口②口③

口口口口
口⑨⑦口
口⑧⑩口 |⑦⑧-⑨|
口口⑪口 |⑩-⑪-|
46
口口口② |①-②-|
口口口口 |③-④-|
③③口口
①①口④

⑦⑦口⑧
⑤⑤口口
口口⑥口 |⑤-⑥-|
口口口口 |⑦-⑧-|
47
口口口口 |①-②-|
口④口口 |③-④-|
②口③③
口口①①

⑤口⑦口
口口⑤⑥
⑦口口口 |⑤--⑥|
口⑥口口 |--⑦-|
48
口口口② |①---|
口①②口 |②---|
口②口口
②口口①

口③③口
口口口口
④口口⑤ |③--④|
⑤口④口 |--⑤-|
49
口口⑤口 |①②③④|
口②①⑤ |⑤---|
口④③口
口口口口

口口口⑨
⑥口⑨口
口口口⑦ |⑥-⑦-⑧-|
⑧口口口 |⑨---|
50
①②②口 |①---|
口口口② |②---|
②口口口
口②②①
51
口口口① |①-②-|
口口④口 |③-④-|
口③③口
①口口②

口⑤口⑧
口⑥口口
⑦口口⑦ |⑤-⑥-|
口⑤口口 |⑦-⑧-|
52
①口④口 |①-②-|
口口口③ |③-④-|
口③②口
①口口口

⑧口口⑤
口⑦⑥口
⑦口口口 |⑤-⑥-|
口⑤口口 |⑦-⑧-|
53
口⑤③④ |①-②-|
①口口② |③-④-|
⑦③⑦⑧ |⑤-⑥-|
①⑤口⑥ |⑦-⑧-|
54
口口⑦⑥ |①②③④|
①②③④ |⑤-⑥⑦|
口⑤口口
①口口口

⑨⑧口口
⑪⑫⑬⑭
⑪口口⑩ |⑧⑨⑩-|
口⑧口口 |⑪⑫⑬⑭|
55
口④口③ |①-②-|
口口口口 |③-④-|
口③②口
①口①①

⑤口⑥口
口口口⑦
⑦口口口 |⑤-⑥-|
口⑤口⑧ |⑦-⑧-|
56
⑤①⑦④ |①-②-|
口⑥①⑧ |③-④-|
⑦③③② |⑤-⑥-|
①⑤口口 |⑦-⑧-|
57
口①口① |①-②-|
口口④口 |③-④-|
口③③②
①口口口

⑥口口口
口口口⑦
⑦口口⑧ |⑤-⑥-|
口⑤⑤⑤ |⑦-⑧-|
58
④①①④ |①-②-③-|
⑧②②⑦ |④---|
⑥③③⑤ |⑤⑥⑦⑧|
⑨⑩⑪⑫ |⑨⑩⑪⑫--|
59
④③②① |①②③④--|
口⑤口⑤ |⑤---|
⑤口⑤口
口口口口

口⑪⑩⑧
⑦口⑫口
口⑨口⑬ |⑥⑦⑧⑨|
口口⑥⑥ |⑩⑪⑫⑬|
60
③口⑧口 |①②③④|
口口口④ |⑤⑥⑦⑧|
⑤⑦②口
①①口⑥

口⑨口⑪
⑨⑫口口
口口⑬⑩ |⑨-⑩-|
口口⑩⑭ |⑪⑫⑬⑭|
61
③口④⑧ |①②③④|
口口口② |⑤⑥⑦⑧|
⑤⑦口口
①①⑥口

⑬⑨口口
⑪⑮⑫口
⑯口⑭⑩ |⑨⑩⑪⑫|
口口口口 |⑬⑭⑮⑯|
62
口口⑧⑦ |①②③④|
口口⑥① |⑤⑥⑦⑧|
口⑤口⑦
④③②①

⑩⑨口口
⑭⑪口⑬
口口⑫口 |⑨⑩⑪⑫|
⑯口口⑮ |⑬⑭⑮⑯|
63
口⑤④① |①-②-|
口口①口 |③④⑤⑥|
口③⑥②
口口②口

⑨口口⑩
⑭口口⑧
⑦⑬口口 |⑦⑧⑨⑩|
⑪⑦⑫口 |⑪⑫⑬⑭|
64
口口②口 |①-②-|
口⑤②④ |③④⑤⑥|
③口⑥①
口口口①

⑦⑦口口
⑬口⑫口
口⑨口⑭ |⑦⑧⑨⑩|
⑪口⑧⑩ |⑪⑫⑬⑭|
65
⑤⑥②① |①-②-|
⑤口口① |③-④-|
口③口⑦ |⑤-⑥-|
④③⑧⑦ |⑦-⑧-|
66
口口⑤口 |①②③④|
口②①⑤ |⑤---|
口④③口
口口口口

⑧⑪口⑪
⑨口⑪口
⑩口口口 |⑥--⑦--⑧-⑨-⑩-|
口⑥⑦口 |⑪---|
67
口口①口 |①---|
口①口① |----|
口口①口 |----|
口口口口 |----|

不確定度: 1

最終更新:2015年12月29日 14:00