STELLAR WIND
L.E.D.

EXTREME

Level: 10
BPM: 160
Notes: 712

1
口口口口 |----|
口口口口 |----|
口口口口 |----|
口口口口 |----|
2
⑦②②④ |①-②-|
①⑤⑥① |----|
①③③① |--③-|
口②②口 |④⑤⑥⑦|
3
口口①口 |①---|
口口口口 |②---|
口口口口 |③---|
①②③④ |④---|
4
口③口口 |①---|
③口口口 |②---|
口口口口 |③---|
①②③④ |④---|
5
口口口① |①---|
口口①口 |②---|
口口口口 |③---|
①②③④ |④---|
6
口③①口 |①---|
③口口① |②---|
口口口口 |③---|
①②③④ |④---|
7
口口①口 |①---|
口口口① |②---|
口口口口 |③---|
①②③④ |④---|
8
③口口口 |①---|
口③口口 |②---|
口口口口 |③---|
①②③④ |④---|
9
口口口① |①-②-|
口口①口 |③-④-|
②④⑥⑧ |⑤-⑥-|
①③⑤⑦ |⑦-⑧-|
10
①②③⑥ |①--②|
口口口④ |--③-|
⑤②口口 |-④--|
①口③④ |⑤-⑥-|
11
①口④口 |①--②|
口②口口 |③-④-|
口口口口
①③口口

⑧口口口
⑦口口⑥
口口口口 |⑤⑥--|
口口⑤⑦ |⑦-⑧-|
12
口④⑥① |①--②|
口⑤②⑧ |③-④-|
口口口口 |⑤--⑥|
①③⑤⑦ |⑦-⑧-|
13
口④口① |①--②|
口口②口 |③-④-|
口口口口
①③口口

口口口⑦
⑤口口⑥
口口口口 |-⑤--|
口口⑤⑥ |⑥-⑦-|
14
①口④口 |①--②|
口②口口 |③-④-|
口口口口
①③口口

⑧口口口
⑦口口⑥
口口口口 |⑤⑥--|
口口⑤⑦ |⑦-⑧-|
15
口④口① |①--②|
口口②口 |③-④-|
口口口口
①③口口

口口口⑧
⑥口口⑦
口口口口 |⑤⑥--|
口口⑤⑦ |⑦-⑧-|
16
①⑥④口 |①--②|
⑧②⑤口 |③-④-|
口口口口 |⑤--⑥|
①③⑤⑦ |⑦-⑧-|
17
口口③口 |①-②③|
口⑤口① |④-⑤-|
②⑤口口
①④口口

⑦口口⑩
口口口⑨
口口⑧⑩ |⑥⑦⑧-|
口口⑥⑨ |⑨-⑩-|
18
⑥②④口 |①--②|
①⑤③口 |--③-|
口④⑤⑥ |④--⑤|
①②③口 |--⑥-|
19
口②⑧① |①--②|
口⑥⑦④ |③-④-|
口口口口 |⑤⑥--|
①③⑤⑦ |⑦-⑧-|
20
口②⑧① |①--②|
口⑥⑦④ |③-④-|
口口口口 |⑤⑥--|
①③⑤⑦ |⑦-⑧-|
21
⑤②⑥① |①--②|
⑧口口④ |③-④-|
口口口口 |⑤--⑥|
①③⑤⑦ |⑦-⑧-|
22
⑤口口① |①--②|
⑧②⑥④ |③-④-|
口口口口 |⑤--⑥|
①③⑤⑦ |⑦-⑧-|
23
口②⑧① |①--②|
口⑥⑦④ |③-④-|
口口口口 |⑤⑥--|
①③⑤⑦ |⑦-⑧-|
24
口②⑧① |①--②|
口⑥⑦④ |③-④-|
口口口口 |⑤⑥--|
①③⑤⑦ |⑦-⑧-|
25
⑤②⑥① |①--②|
⑧口口④ |③-④-|
口口口口 |⑤--⑥|
①③⑤⑦ |⑦-⑧-|
26
⑤口口① |①--②|
⑧②⑥④ |③-④-|
口口口口 |⑤--⑥|
①③⑤⑦ |⑦-⑧-|
27
口②⑧① |①--②|
口⑥⑦④ |③-④-|
口口口口 |⑤⑥--|
①③⑤⑦ |⑦-⑧-|
28
口②⑧① |①--②|
口⑥⑦④ |③-④-|
口口口口 |⑤⑥--|
①③⑤⑦ |⑦-⑧-|
29
⑤②⑥① |①--②|
⑧口口④ |③-④-|
口口口口 |⑤--⑥|
①③⑤⑦ |⑦-⑧-|
30
⑤口口① |①--②|
⑧②⑥④ |③-④-|
口口口口 |⑤--⑥|
①③⑤⑦ |⑦-⑧-|
31
口③⑩① |①-②③|
口⑦⑨⑤ |④-⑤-|
②⑤⑧⑩ |⑥⑦⑧-|
①④⑥⑨ |⑨-⑩-|
32
口③⑩① |①-②③|
口⑦⑨⑤ |④-⑤-|
②⑤⑧⑩ |⑥⑦⑧-|
①④⑥⑨ |⑨-⑩-|
33
口②口① |①--②|
口口口③ |--③-|
口②③口
①口口口

④口⑥口
⑧口口口
口口口口 |④⑤-⑥|
⑦④⑤口 |⑦-⑧-|
34
口口口① |①--②|
口②口③ |--③④|
③①②口
口④口口

⑤口⑫口
⑪口⑧口
口⑩口⑨ |⑤⑥⑦⑧|
⑥口口⑦ |⑨⑩⑪⑫|
35
口①⑤③ |①--②|
⑥④口② |--③-|
口口口口 |-④--|
口口口口 |⑤--⑥|
36
①③口口 |--①-|
口⑤②④ |-②--|
口口口口 |③--④|
口口口口 |--⑤-|
37
④口②⑥ |①--②|
①⑤③口 |--③-|
口口口口 |-④--|
口口口口 |⑤--⑥|
38
③②⑤口 |--①-|
口口④① |-②--|
口口口口 |③--④|
口口口口 |--⑤-|
39
⑤③口① |①--②|
口②⑥④ |--③-|
口口口口 |-④--|
口口口口 |⑤--⑥|
40
口⑤①③ |--①-|
②④口口 |-②--|
口口口口 |③--④|
口口口口 |--⑤-|
41
③⑤①口 |①--②|
②口④⑥ |--③-|
口口口口 |-④--|
口口口口 |⑤--⑥|
42
⑤口③① |--①-|
④②口口 |-②--|
口口口口 |③--④|
口口口口 |--⑤-|
43
口①⑤③ |①--②|
⑥④口② |--③-|
口口口口 |-④--|
口口①口 |⑤--⑥|
44
①③口⑤ |--①-|
口口②④ |-②--|
口口口口 |③--④|
口口口口 |--⑤-|
45
③⑤①口 |①--②|
②口④⑥ |--③-|
口口口口 |-④--|
口口口口 |⑤--⑥|
46
⑥口③① |--①-|
④②口口 |-②--|
口口口口 |③--④|
口口口⑤ |⑤-⑥-|
47
口①⑤③ |①--②|
⑦④口② |--③-|
口口口口 |-④--|
⑥①口口 |⑤-⑥⑦|
48
②口口口 |①-②-|
口口③口 |-③--|
口口口口
口口①口

⑥口④口
⑤口口口
口⑥口口 |④--⑤|
口口口口 |--⑥-|
49
口①③口 |①--②|
口口②口 |--③④|
口口口①
口③④口

口⑦口口
口⑥口⑨
⑧⑨口口 |⑤⑥--|
口口口⑤ |⑦-⑧⑨|
50
⑧⑤口② |①-②-|
口④⑥口 |③④--|
口口①口 |⑤--⑥|
①③⑤⑦ |⑦-⑧-|
51
口口口口 |----|
口口口口 |----|
口口口口 |----|
口口口口 |----|
52
口①⑦④ |①--②|
⑧⑥口② |③-④-|
口口口口 |⑤⑥--|
①③⑤⑦ |⑦--⑧|
53
②⑤口口 |①-②-|
口⑧④⑥ |③④--|
口口口口 |⑤--⑥|
①③⑤⑦ |⑦-⑧-|
54
⑥口②⑧ |①--②|
①⑦④口 |③-④-|
口口口口 |⑤⑥--|
①③⑤⑦ |⑦--⑧|
55
⑤④⑧口 |①-②-|
口口⑥② |③④--|
口口口口 |⑤--⑥|
①③⑤⑦ |⑦-⑧-|
56
⑦④口① |①--②|
口②⑧⑥ |③-④-|
口口口口 |⑤⑥--|
①③⑤⑦ |⑦--⑧|
57
口⑧②⑤ |①-②-|
④⑥口口 |③④--|
口口口口 |⑤--⑥|
①③⑤⑦ |⑦-⑧-|
58
④⑦①口 |①--②|
②口⑥⑧ |③-④-|
口口口口 |⑤⑥--|
①③⑤⑦ |⑦--⑧|
59
⑧口⑤② |①-②-|
⑥④口口 |③④--|
口口口口 |⑤--⑥|
①③⑤⑦ |⑦-⑧-|
60
口①⑦④ |①--②|
⑧⑥口② |③-④-|
口口口口 |⑤⑥--|
①③⑤⑦ |⑦--⑧|
61
②⑤口⑧ |①-②-|
口口④⑥ |③④--|
口口口口 |⑤--⑥|
①③⑤⑦ |⑦-⑧-|
62
④⑦①口 |①--②|
②口⑥⑧ |③-④-|
口口口口 |⑤⑥--|
①③⑤⑦ |⑦--⑧|
63
⑨口⑤② |①-②-|
⑦④口口 |③④--|
口口⑥⑨ |⑤-⑥⑦|
①③⑤⑧ |⑧-⑨-|
64
口①⑦④ |①--②|
⑧⑥口② |③-④-|
口口口口 |⑤⑥--|
①③⑤⑦ |⑦--⑧|
65
②口口口 |①-②-|
口口④口 |③④--|
口口口口
①③口口

⑧口⑤口
⑥口口口
口口口口 |⑤--⑥|
口口⑤⑦ |⑦-⑧-|
66
口①⑤口 |①-②③|
口口③口 |④-⑤-|
②⑤口口
①④口口

口⑨口口
口⑦口⑪
口口⑧⑩ |⑥⑦⑧-|
口口⑥⑨ |⑨-⑩⑪|
67
⑩⑥口② |①-②-|
口④⑧口 |③④⑤-|
②⑤⑦⑩ |⑥-⑦⑧|
①③⑥⑨ |⑨-⑩-|
68
口口①⑤ |①②③④|
④②⑦③ |⑤-⑥⑦|
⑥口口口
①⑤口口

⑩⑧⑫口
口⑬口⑭
口⑪⑨口 |⑧⑨⑩-|
口口⑧⑪ |⑪⑫⑬⑭|
69
口④口口 |①--②|
①口②口 |③-④-|
口口口口
①③口口

口口口⑤
⑨⑥口⑧
口口口口 |⑤-⑥-|
口口⑤⑦ |⑦⑧-⑨|
70
②④③口 |①②③④|
口口⑦口 |⑤-⑥⑦|
口⑥①⑤
①⑤口口

⑬口口⑨
⑪⑩口⑭
⑧口⑫口 |⑧⑨⑩-|
口口⑧⑪ |⑪⑫⑬⑭|
71
口①口口 |①---|
⑤③④⑥ |②---|
口口口口 |③-④-|
①②③口 |-⑤-⑥|
72
②④口⑫ |①②③④|
口⑦⑨⑭ |⑤-⑥⑦|
③⑥⑩⑬ |⑧⑨⑩-|
①⑤⑧⑪ |⑪⑫⑬⑭|
73
口口③口 |①-②③|
⑨⑥⑦口 |④-⑤-|
②⑤⑦⑩ |⑥-⑦-|
①④⑥⑧ |⑧⑨⑩-|
74
口③④⑦ |①②③④|
口⑤口② |⑤-⑥⑦|
①口口口
口⑥口口

⑧口口口
⑬口口⑫
口⑩口口 |⑧⑨⑩-|
⑪口⑨⑭ |⑪⑫⑬⑭|
75
⑩⑧⑥⑨ |①②-③|
口②④⑦ |④-⑤⑥|
③口①⑦ |-⑦⑧-|
⑩⑧⑤⑨ |⑨-⑩-|
76
口口口口 |①---|
口①①口 |----|
口①①口 |----|
口口口口 |----|


不确定度: 0

タグ:

+ タグ編集
  • タグ:

このサイトはreCAPTCHAによって保護されており、Googleの プライバシーポリシー利用規約 が適用されます。

最終更新:2012年11月10日 14:02