超越してしまった彼女と其を生み落した理由
Ayatsugu_Otowa

EXTREME

Level: 10
BPM: 178
Notes: 896

1
口口口口 |----|
口口口口 |----|
口口口口 |----|
口口口口 |----|
2
口口口口 |①---|
口⑤④口 |----|
口③②口 |----|
①口口① |②③④⑤|
3
⑥口口① |①②③④|
口口口② |--⑤-|
口⑧⑦③ |⑥--⑦|
⑤口口④ |--⑧-|
4
口①②口 |①-②-|
①③④② |③④--|
⑤口口⑥ |⑤---|
口口口口 |⑥---|
5
⑤口口⑥ |①-②③|
口③②口 |--④-|
口口④口 |⑤---|
①①口口 |⑥---|
6
④口口④ |①--②|
②口口③ |--③-|
口③②① |-④--|
⑥①口⑤ |⑤-⑥-|
7
⑦①⑤⑥ |①-②-|
①②③⑤ |③-④-|
⑤④口① |⑤-⑥-|
口⑤①⑧ |⑦-⑧-|
8
口③⑤口 |①-②-|
⑥①口⑤ |③-④-|
⑦③②④ |⑤---|
①⑤口口 |--⑥⑦|
9
⑤口⑥③ |①-②-|
口口④口 |③-④-|
⑥②⑤口 |⑤---|
①口口口 |⑥---|
10
③口口口 |①---|
口②口口 |--②-|
口口②① |----|
口口①③ |③---|
11
口②⑦③ |①-②-|
④⑧口⑫ |③④⑤⑥|
口口⑨⑤ |⑦⑧⑨⑩|
⑥⑩①⑪ |⑪-⑫-|
12
口口⑥④ |①-②-|
口口②⑧ |③-④-|
口口⑤③ |⑤-⑥-|
口口①⑦ |⑦-⑧-|
13
口口口④ |①---|
②口③口 |②---|
口口口④ |③---|
③②①口 |④---|
14
④口②口 |①---|
口②口③ |②---|
④口①口 |③---|
口③口① |④---|
15
口②⑦③ |①-②-|
④⑧口⑫ |③④⑤⑥|
口口⑨⑤ |⑦⑧⑨⑩|
⑥⑩①⑪ |⑪-⑫-|
16
口口⑥④ |①-②-|
口口②⑧ |③-④-|
口口⑤③ |⑤-⑥-|
口口①⑦ |⑦-⑧-|
17
口③④③ |①---|
口口②④ |②---|
②④③口 |③---|
口②①口 |④---|
18
④口口口 |①---|
①③③④ |②---|
②④口③ |③---|
①②①② |④---|
19
口②⑦③ |①-②-|
④⑧口⑫ |③④⑤⑥|
口口⑨⑤ |⑦⑧⑨⑩|
⑥⑩①⑪ |⑪-⑫-|
20
口口⑥④ |①-②-|
口口②⑧ |③-④-|
口口⑤③ |⑤-⑥-|
口口①⑦ |⑦-⑧-|
21
③口⑥③ |①-②-|
⑧④②口 |③-④-|
口⑤⑤口 |⑤-⑥-|
⑦口①⑦ |⑦-⑧-|
22
③③口口 |①-②-|
口口①① |③-④-|
②口④口
口口口口

口口⑤口
口口口⑧
口⑦口⑤ |⑤-⑥-|
⑥⑦口口 |⑦-⑧-|
23
口②⑦③ |①-②-|
④⑧口⑫ |③④⑤⑥|
口口⑨⑤ |⑦⑧⑨⑩|
⑥⑩①⑪ |⑪-⑫-|
24
口口⑥④ |①-②-|
口口②⑧ |③-④-|
口口⑤③ |⑤-⑥-|
口口①⑦ |⑦-⑧-|
25
③口⑥③ |①-②-|
口口②口 |③-④-|
⑦⑤⑤⑦ |⑤-⑥-|
口④①⑧ |⑦-⑧-|
26
⑥①口② |①--②|
①⑥②口 |--③-|
口③⑤④ |-④--|
③口④⑤ |⑤-⑥-|
27
口口①② |①---|
口口口① |②-③-|
①口口口
③①口口

⑪⑦口口
口口⑥⑩
⑨⑤口口 |④⑤⑥⑦|
口口④⑧ |⑧⑨⑩⑪|
28
口口⑥⑥ |①-②③|
②④⑫⑪ |-④⑤-|
⑩⑨①① |⑥-⑦⑧|
③⑤⑧⑦ |⑨⑩⑪⑫|
29
③①③口 |①--②|
①口口口 |--③-|
口口口②
②②口口

口⑥口⑤
⑥口口⑤
口④⑥口 |-④--|
口口④④ |⑤--⑥|
30
②口②口 |--①-|
口口①口 |-②--|
①口口②
口口口口

口口口口
⑧⑦⑥⑤
口③口口 |③--④|
③④④④ |----⑤⑥⑦⑧|
31
②④口① |①-②③|
⑪口口口 |-④⑤-|
③⑤⑩⑨ |⑥-⑦⑧|
⑦⑧⑥⑥ |⑨⑩⑪-|
32
⑦③②① |①②③-|
⑧④⑤④ |-④--|
⑨⑥口⑥ |⑤--⑥|
⑩口⑤口 |⑦⑧⑨⑩|
33
口②口① |①--②|
口②口② |--③-|
口口①口
口③③口

④口⑤口
⑥口④口
⑥④⑥⑤ |-④--|
口口口口 |⑤--⑥|
34
④①口③ |--①-|
口④③① |-②--|
口口口⑤ |③--④|
②②④② |--⑤-|
35
口③②④ |①-②③|
口口口① |---④|
口口口口
口口口口

⑤口⑫口
口⑥口⑪
⑩口⑦口 |⑤⑥⑦⑧|
口⑨口⑧ |⑨⑩⑪⑫|
36
口①口口 |①-②③|
③口口口 |-④⑤-|
口②口⑤
口口④口

口口口⑪
口⑨⑩口
⑧⑬⑦口 |⑥⑦⑧⑨|
⑫口口⑥ |⑩⑪⑫⑬|
37
③②①口 |①-②③|
④口口① |-④--|
口口口口
口口口口

口⑫口⑦
口⑧⑪口
口口口口 |⑤⑥⑦⑧|
⑩⑥⑤⑨ |⑨⑩⑪⑫|
38
⑩⑬⑬⑨ |①②③④|
④口口③ |⑤⑥⑦⑧|
②⑥⑤① |⑨⑩⑪⑫|
⑫⑧⑦⑪ |⑬---|
39
⑦口口⑧ |①-②-|
④口⑥② |③-④-|
③口⑤① |⑤-⑥-|
⑨口口⑩ |⑦⑧⑨⑩|
40
口⑦⑦口 |①-②-|
⑥②口④ |③-④-|
⑤①口③ |⑤-⑥-|
口口口口 |⑦---|
41
①⑥⑤① |①--②|
⑥③③⑤ |--③-|
口④④口 |-④--|
②口口② |⑤--⑥|
42
①④④① |--①-|
④口口④ |-②--|
口口口口 |③---|
②③③② |④---|
43
①⑦⑦⑤ |①②③④|
口②⑤口 |--⑤-|
⑧口③⑥ |⑥--⑦|
口⑧⑥④ |--⑧-|
44
⑤⑤⑥口 |①-②-|
②⑦③① |③④--|
口④⑧口 |⑤-⑥⑦|
②口口① |⑧---|
45
口⑤口④ |①-②③|
①口②③ |--④-|
口⑤口④ |⑤---|
⑥口口⑥ |⑥---|
46
口口口③ |①--②|
④⑥⑦① |--③-|
②③④口 |-④--|
⑤①②⑤ |⑤-⑥⑦|
47
②⑤①③ |①-②-|
⑤口口① |③-④-|
①④⑧⑤ |⑤-⑥-|
⑦①⑤⑥ |⑦-⑧-|
48
⑤⑥④⑤ |①-②-|
⑤①⑦② |③-④-|
①③口口 |⑤---|
口③口口 |--⑥⑦|
49
⑥口口④ |①-②-|
口⑤口口 |③-④-|
②口⑤① |⑤---|
口③口⑥ |⑥---|
50
口①②口 |①---|
②口口① |--②-|
①③口② |----|
口②①口 |③---|
51
①⑨⑩⑥ |①②③④|
⑨②⑥⑩ |⑤-⑥-|
口口③⑦ |⑦-⑧⑨|
⑤⑧⑦④ |--⑩-|
52
口口口⑥ |①-②-|
口①③⑦ |③④--|
口口②⑧ |⑤-⑥⑦|
⑤⑨④⑤ |⑧-⑨-|
53
⑤①口口 |①-②③|
①口④口 |④-⑤-|
口③口口
口口②口

口口⑧⑥
⑨⑦口口
口口⑥⑧ |⑥-⑦-|
口口口口 |⑧-⑨-|
54
③②口口 |①--②|
口⑥⑦② |--③-|
①④③④ |-④--|
⑤口①⑤ |⑤-⑥⑦|
55
③⑤①② |①-②-|
⑤口口① |③-④-|
①⑧④⑤ |⑤-⑥-|
⑥①⑤⑦ |⑦-⑧-|
56
⑤口①⑤ |①-②-|
⑤③口① |③-④-|
②口⑦⑥ |⑤---|
口③④口 |--⑥⑦|
57
口②口口 |①-②-|
口⑤④⑥ |③-④-|
口①口口 |⑤---|
口⑥③⑤ |⑥---|
58
③口口③ |①---|
口②②口 |--②-|
①口口① |----|
口口口口 |③---|
59
⑩⑪口⑪ |①②③④|
⑥⑦⑧⑨ |⑤-⑥⑦|
口口口⑤ |⑧⑨⑩-|
④③②① |⑪---|
60
⑩⑪口⑪ |①②③④|
⑥⑦⑧⑨ |⑤-⑥⑦|
口口口⑤ |⑧⑨⑩-|
④③②① |⑪---|
61
⑩⑪口⑪ |①②③④|
⑧⑤口⑨ |⑤-⑥⑦|
⑥③④⑦ |⑧⑨⑩-|
口①②口 |⑪---|
62
⑩⑪口⑪ |①②③④|
⑧⑤口⑨ |⑤-⑥⑦|
⑥③④⑦ |⑧⑨⑩-|
口①②口 |⑪---|
63
口⑪口⑪ |①②③④|
⑥⑩⑧口 |⑤-⑥⑦|
④⑦②⑨ |⑧⑨⑩-|
口③⑤① |⑪---|
64
口⑪口⑪ |①②③④|
⑥⑩⑧口 |⑤-⑥⑦|
④⑦②⑨ |⑧⑨⑩-|
口③⑤① |⑪---|
65
口⑪口⑪ |①②③④|
⑨口⑦⑩ |⑤-⑥⑦|
口⑧⑤⑥ |⑧⑨⑩-|
④③②① |⑪---|
66
口口口口 |①--②|
口③口口 |--③-|
①③②口
口①②口

⑤口口⑩
⑦口口⑧
⑨口口⑥ |④⑤⑥⑦|
⑪口口④ |⑧⑨⑩⑪|
67
⑦口①口 |①②③④|
口⑥②口 |--⑤-|
⑧口③口 |⑥--⑦|
口⑤④口 |--⑧-|
68
口⑤④口 |①-②-|
口口③⑥ |③④--|
口②①⑦ |⑤-⑥⑦|
口口口⑧ |⑧---|
69
⑥口口口 |①-②③|
口④⑤口 |--④-|
口口③口 |⑤---|
①口②口 |⑥---|
70
④④口⑤ |①--②|
口⑤③③ |--③-|
②②⑤口 |-④--|
⑤口①① |⑤---|
71
⑧口口口 |①-②-|
口⑦⑥⑤ |③-④-|
④口口口 |⑤-⑥-|
口③②① |⑦-⑧-|
72
口口口① |①-②-|
③口口口 |③-④-|
口口口②
④口口口

口⑤⑤⑦
口口口⑧
口口口口 |⑤---|
口口口⑥ |⑥-⑦⑧|
73
口⑦⑧口 |①-②-|
口⑤⑥口 |③-④-|
口③④口 |⑤-⑥-|
口①②口 |⑦-⑧-|
74
①④④① |①-②-|
②口口② |--③-|
口口口口 |----|
③口口③ |④---|
75
⑥⑩⑧⑫ |①②③④|
⑤⑤⑤⑤ |⑤---|
④③②① |⑥⑦⑧⑨|
⑦⑪⑨⑬ |⑩⑪⑫⑬|
76
⑤口⑥⑨ |①②-③|
③口④⑩ |④-⑤⑥|
①口②⑪ |-⑦⑧-|
⑦口⑧⑫ |⑨⑩⑪⑫|
77
口⑥口口 |①②③④|
⑤②⑦口 |⑤⑥⑦⑧|
①⑧③口
口④口口

⑨口⑩口
口⑬口口
口口口⑫ |⑨⑩-⑪|
口口⑪口 |--⑫⑬|
78
⑮⑪⑩⑤ |①②③④|
⑫⑯⑥⑨ |⑤⑥⑦⑧|
④⑦②⑬ |⑨⑩⑪⑫|
⑧③⑭① |⑬⑭⑮⑯|
79
口口口④ |①②③-|
口口④口 |④-⑤-|
口⑤②口
⑤③口①

口⑦⑥口
⑪口口⑩
⑨口口⑧ |⑥⑦⑧⑨|
口⑬⑫口 |⑩⑪⑫⑬|
80
①⑦⑧③ |①②-③|
⑨②⑩口 |④⑤-⑥|
口⑤⑪口 |⑦-⑧-|
④口口⑥ |⑨-⑩⑪|
81
口⑧⑦口 |①-②-|
⑥⑨口⑤ |③-④-|
④口口③ |⑤-⑥-|
口②①口 |⑦-⑧⑨|
82
⑤口⑥④ |①-②-|
⑦⑦④⑥ |③-④-|
⑤①②② |⑤-⑥-|
③③口口 |⑦---|
83
口①口口 |①---|
③口②③ |--②-|
②①①② |----|
③②①③ |③---|

不確定度: 1

最終更新:2015年11月03日 00:01