FLOWER [2]
DJ YOSHITAKA

BASIC

Level: 6
BPM: 173
Notes: 402

1
口口口口 |----|
口口口口 |----|
口口口口 |----|
口口口口 |----|
2
口口口口 |①---|
①⑤口② |②---|
口口④口 |③-④-|
口③口口 |⑤---|
3
|①---|
口口口口 |----|
口口口口
口口口口

口口口
口口口口
口口口口 |②---|
口口口口 |----|
4
口口口口 |①---|
口④③口 |②---|
②⑥⑤① |③-④-|
口口口口 |⑤-⑥-|
5
口口口口 |①---|
口口口口 |----|
口口口口


口口口口
口口口口
口口口口 |----|
口口口 |②---|
6
口口口 |①---|
口口口 |----|
口口口 |----|
口口口 |----|
7
口口口口 |----|
口口口口 |----|
口口口口 |----|
口口口口 |----|
8
口口口口 |----|
口口口口 |----|
口口口口 |----|
口口口口 |----|
9
口口口口 |①---|
口口口 |----|
口口


口口口口
口口
口口 |②---|
口 |----|
10
口口口 |①---|
口口口 |----|
口口口 |----|
口口 |----|
11
口口口口 |----|
口口口口 |----|
口口口口 |----|
口口口口 |----|
12
口口口口 |①---|
口口 |----|
口口 |----|
口口 |----|
13
口口口口 |①---|
口口口 |----|
口口口 |----|
口 |----|
14
口口口口 |①---|
口①②口 |②---|
口③④口 |③---|
口口口 |④---|
15
①口口② |①---|
口口口口 |②---|
口口口口 |③---|
③口口④ |④---|
16
口①口口 |①---|
口口②口 |②---|
口③口口 |③---|
口⑤④口 |④-⑤-|
17
③口口口 |--①-|
口②口口 |--②-|
①口口口 |--③-|
口口口口 |----|
18
口口口口 |①---|
口②①口 |②---|
口④③口 |③---|
口口口口 |④---|
19
②口口① |①---|
口口口口 |②---|
口口口口 |③---|
④口口③ |④---|
20
口口①口 |①---|
口②口口 |②---|
口口③口 |③---|
口④口口 |④---|
21
口口口口 |①---|
口口口 |----|
口口口
口口口

口口口口
口口
口口口 |②---|
口口 |----|
22
口口口口 |①---|
口口
口口


口口口口
口口口 |--②-|
口口口
口口

口口口口
口口③口
口口口口 |----|
口口口 |③---|
23
口口口口 |①---|
①口口② |②---|
③口口④ |③---|
口口口口 |④---|
24
口①口口 |①---|
口口②口 |②---|
口③口口 |③---|
口⑤④口 |④-⑤-|
25
③口④口 |--①-|
口②口口 |--②-|
①口口口 |--③-|
口口口口 |--④-|
26
口口口口 |----|
口①口口 |①---|
口③②口 |②---|
口口口口 |③---|
27
②口口① |①---|
口口口口 |②---|
口口口口 |③---|
④口口③ |④---|
28
口口①口 |①---|
口②口口 |②---|
口口③口 |③---|
口④口口 |④---|
29
口口口 |①---|
口口口 |----|
口口口 |----|
口口口 |----|
30
①②口口 |①---|
③④口口 |②---|
口口口口 |③---|
口口口 |④---|
31
口口②① |①---|
口口④③ |②---|
口口口口 |③---|
口口口口 |④---|
32
口口口口 |①---|
口口口口 |②---|
①②口口 |③---|
③④口口 |④---|
33
口口口口 |①---|
口口口口 |②---|
口口②① |③---|
口口④③ |④---|
34
口①②口 |①---|
口口口口 |②---|
口口口口 |③---|
口③④口 |④---|
35
口口口口 |①---|
①口口② |②---|
③口口④ |③---|
口口口口 |④---|
36
口①①口 |①---|
④②②④ |②---|
口③③口 |③---|
口口口口 |④---|
37
①①②② |①--②|
口⑤⑥口 |--③-|
口⑤⑥口 |-④--|
③③④④ |⑤-⑥-|
38
①口口② |①---|
口口口口 |②---|
口③④口 |③-④-|
口⑤⑥口 |⑤-⑥-|
39
口③④口 |①---|
①⑤⑥② |②---|
口口口口 |③-④-|
口口口口 |⑤-⑥-|
40
口③口口 |①---|
口口④口 |②---|
①⑤口② |③-④-|
口口⑥口 |⑤-⑥-|
41
①口④口 |①--②|
②⑤口口 |--③-|
③口⑥口 |④-⑤-|
口⑦口口 |⑥-⑦-|
42
①口口② |①---|
口口口口 |②---|
口③④口 |③-④-|
口⑤⑥口 |⑤-⑥-|
43
口③④口 |①---|
①⑤⑥② |②---|
口口口口 |③-④-|
口口口口 |⑤-⑥-|
44
口③口口 |①---|
口口④口 |②---|
①⑤口② |③-④-|
口口⑥口 |⑤-⑥-|
45
①口④口 |①--②|
②⑤口口 |--③-|
③口⑥口 |④-⑤-|
口⑦口口 |⑥-⑦-|
46
①口口② |①---|
口口口口 |②---|
口③④口 |③-④-|
口⑤⑥口 |⑤-⑥-|
47
口③④口 |①---|
①⑤⑥② |②---|
口口口口 |③-④-|
口口口口 |⑤-⑥-|
48
口③口口 |①---|
口口④口 |②---|
①⑤口② |③-④-|
口口⑥口 |⑤-⑥-|
49
①口④口 |①--②|
②⑤口口 |--③-|
③口⑥口 |④-⑤-|
口⑦口口 |⑥-⑦-|
50
①口口② |①---|
口口口口 |②---|
口③④口 |③-④-|
口⑤⑥口 |⑤-⑥-|
51
口③④口 |①---|
①⑤⑥② |②---|
口口口口 |③-④-|
口口口口 |⑤-⑥-|
52
口③口口 |①---|
口口④口 |②---|
①⑤口② |③-④-|
口口⑥口 |⑤-⑥-|
53
①口④口 |①--②|
②⑤口口 |--③-|
③口⑥口 |④-⑤-|
口⑦口口 |⑥-⑦-|
54
口口口口 |①--②|
②口口① |--③-|
③口口④ |-④--|
口⑤⑥口 |⑤-⑥-|
55
口口 |①---|
①口 |----|
口口 |②---|
口口

口口口口
口口口口
口口口口
口口 |③---|
56
口口口口 |①--②|
②口口① |--③-|
③口口④ |-④--|
口⑤⑥口 |⑤-⑥-|
57
口口 |①---|
①口 |----|
口口 |②---|
口口

口口口口
口口口口
口口口口
口口 |③---|
58
口口口口 |①--②|
②口口① |--③-|
③口口④ |-④--|
口⑤⑥口 |⑤-⑥-|
59
口口 |①---|
①口 |----|
口口 |②---|
口口

口口口口
口口口口
口口口口
口口 |③---|
60
口口口口 |①--②|
②口口① |--③-|
③口口④ |-④--|
口⑤⑥口 |⑤-⑥-|
61
口口 |①---|
①口 |----|
口口 |②---|
口口

口口口口
口口口口
口口口口
口口 |③---|
62
口 |①---|
口 |----|
口 |----|
口 |----|
63
口口口口 |----|
口口口口 |----|
口口口口 |----|
口口口口 |----|
64
口口口口 |①---|
口口口口 |----|
口口口口 |----|
口 |----|
65
口口口口 |----|
口口口口 |----|
口口口口 |----|
口口口口 |----|
66
口口口口 |----|
口口口口 |----|
口口口口 |----|
口口口口 |----|
67
口口口口 |----|
口口口口 |----|
口口口口 |----|
口口口口 |----|
68
口口口口 |①---|
口①①口 |----|
口①①口 |----|
口口口口 |----|
69
口口口口 |①---|
口①①口 |----|
口①①口 |----|
口口口口 |----|
70
口口口口 |①---|
②①①② |----|
②①①② |②---|
口口口口 |----|
71
口①①口 |①--②|
口②②口 |--③-|
⑤③③⑤ |-④--|
口④④口 |⑤---|
72
①口口② |①---|
口口口口 |②---|
口③④口 |③-④-|
口⑤⑥口 |⑤-⑥-|
73
口③④口 |①---|
①⑤⑥② |②---|
口口口口 |③-④-|
口口口口 |⑤-⑥-|
74
口③口口 |①---|
口口④口 |②---|
①⑤口② |③-④-|
口口⑥口 |⑤-⑥-|
75
①口④口 |①--②|
②⑤口口 |--③-|
③口⑥口 |④-⑤-|
口⑦口口 |⑥-⑦-|
76
①口口② |①---|
口口口口 |②---|
口③④口 |③-④-|
口⑤⑥口 |⑤-⑥-|
77
口③④口 |①---|
①⑤⑥② |②---|
口口口口 |③-④-|
口口口口 |⑤-⑥-|
78
口③口口 |①---|
口口④口 |②---|
①⑤口② |③-④-|
口口⑥口 |⑤-⑥-|
79
①口④口 |①--②|
②⑤口口 |--③-|
③口⑥口 |④-⑤-|
口⑦口口 |⑥-⑦-|
80
口口口口 |①--②|
②口口① |--③-|
③口口④ |-④--|
口⑤⑥口 |⑤-⑥-|
81
口口 |①---|
①口 |----|
口口 |②---|
口口

口口口口
口口口口
口口口口
口口 |③---|
82
口口口口 |①--②|
②口口① |--③-|
③口口④ |-④--|
口⑤⑥口 |⑤-⑥-|
83
口口 |①---|
①口 |----|
口口 |②---|
口口

口口口口
口口口口
口口口口
口口 |③---|
84
口口口口 |①--②|
②口口① |--③-|
③口口④ |-④--|
口⑤⑥口 |⑤-⑥-|
85
口口 |①---|
①口 |----|
口口 |②---|
口口

口口口口
口口口口
口口口口
口口 |③---|
86
口口口口 |①--②|
②口口① |--③-|
③口口④ |-④--|
口⑤⑥口 |⑤-⑥-|
87
口口 |①---|
①口 |----|
口口 |②---|
口口

口口口口
口口口口
口口口口
口口 |③---|

不確定度: 0

最終更新:2015年10月29日 14:01