SWEET HOME PARTY
劇団レコード

EXTREME

Level: 10
BPM: 134-180
Notes: 617

BPM: 134
1
口口口口 |----|
口口口口 |----|
口口口口 |----|
口口口口
2
①口②口 |①-②-|
③⑥口口 |③-④-|
⑤口口④ |⑤-⑥-|
口口口口
3
口口口口 |①-②-|
口⑤口② |③-④-|
口③口⑥ |⑤-⑥-|
口①④口
4
口②口① |①-②-|
口口⑥③ |③-④-|
④口口⑤ |⑤-⑥-|
口口口口
5
口口口口 |①-②-|
②口⑤口 |③-④-|
⑥口③口 |⑤-⑥-|
口④①口
6
口口①口 |①---|
口口口口 |----|
口口口口 |----|
口口口口
7
口口口口 |----|
口口口口 |----|
口口口口 |----|
口口口口
8
②口口⑦ |①-②-|
口④⑤口 |③-④-|
口⑥③口 |⑤-⑥-|
⑧口口① |⑦-⑧-|
9
④口口口 |①---②--③|
②②口口 |④-⑤-|
③⑤⑤口
口①①口

⑨口口⑦
口口口口
口口口口 |⑥-⑦-|
⑧口口⑥ |⑧-⑨-|
10
⑨⑥⑥口 |①-②-|
口①②口 |③-④-|
⑧③④⑩ |⑤-⑥-|
⑤⑦⑦⑤ |⑦--⑧⑨--⑩|
11
口④④① |①---②--③|
口②②口 |④---|
口③③口 |----|
⑤⑤口口 |⑤---|
12
①①⑥⑥ |①②③④|
口口②① |⑤-⑥-|
口口④③
口口口⑤

口口口口
⑦口⑪⑪
⑧⑩口口 |⑦⑧⑨-|
⑨⑩口口 |⑩-⑪-|
13
③②⑬⑭ |①②③④|
④①口⑬ |⑤⑥⑦⑧|
⑩⑨⑤⑧ |⑨⑩⑪⑫|
⑪⑫⑥⑦ |⑬⑭--|
14
①口⑤口 |①-②③|
口口②口 |④-⑤-|
口③口口
④口口①

口⑥口口
口⑨⑨⑨
口口⑩口 |⑥-⑦-|
口⑧⑦口 |⑧---⑨--⑩|
15
口③①⑤ |①--②③--④|
口口口口 |⑤-⑥-|
口②口④
口⑥⑥口

⑧口口⑨
口⑦⑦口
口口口口 |⑦-⑧-|
⑨口口⑧ |--⑨-|
16
口①口口 |①-②③|
①②口⑤ |④-⑤-|
口口③口
口口口④

口⑦口口
口⑧口口
口⑨口⑥ |⑥-⑦-|
口口口口 |⑧-⑨-|
17
⑤口③口 |①--②③--④|
①口①口 |⑤-⑥-|
④口②口
口⑥⑥口

口⑪⑪⑦
⑫⑦⑫⑧
⑬⑦口⑨ |⑦⑧⑨⑩|
口口口⑩ |⑪---⑫--⑬|
18
①口口口 |①-②-|
口④口口 |③-④-|
口口③口
口②口口

⑧⑤⑤⑤
⑧⑨口⑥
⑧口口⑥ |⑤-⑥-|
⑦⑦⑦⑥ |⑦---⑧--⑨|
19
⑤⑤⑤④ |①-②-|
⑥⑧③⑧ |③-④-|
⑥②①⑨ |⑤-⑥-|
⑥⑦⑦⑦ |⑦---⑧--⑨|
20
口②②① |①-②-|
口口口口 |--③-|
口口③口
③口口口

⑤口口⑥
口⑥⑤口
口④口口 |④-⑤-|
口⑦⑦④ |⑥-⑦-|
21
口①①口 |①②③④|
口口口⑤ |-⑤--|
口④①⑤
②口口③

⑥⑧⑧口
口⑦口口
口口⑧口 |⑥-⑦-|
口口口口 |⑧---|
22
②⑤⑤口 |①-②-|
④口口口 |--③-|
①口口口 |--④-|
口③口口 |--⑤-|
23
口⑤⑤② |①-②-|
口口口④ |--③-|
口口口① |--④-|
口口③口 |--⑤-|
24
①口口① |①-②-|
口②②④ |-③--|
口③③⑤ |④--⑤|
口④④⑥ |--⑥-|
25
口①①口 |①-②-|
②口口② |-③--|
③口口口
口③口口

口⑥⑥口
口口口口
口口口④ |④-⑤-|
⑤口④⑤ |-⑥--|
26
②⑤⑤口 |①-②-|
④口口口 |--③-|
①口口口 |--④-|
口③口口 |--⑤-|
27
口⑤⑤② |①-②-|
口口口④ |--③-|
口口口① |--④-|
口口③口 |--⑤-|
28
①口口① |①-②-|
④②②口 |-③--|
⑤③③口 |④--⑤|
⑥④④口 |--⑥-|
29
⑥①①⑤ |①-②-|
②口口② |-③--|
④口口③ |④-⑤-|
⑦④③④ |⑥-⑦-|
30
口①①口 |①-②-|
⑤口③③ |③-④-|
⑤⑥口④ |⑤-⑥-|
口②②⑤
31
口①①③ |①-②-|
口③口④ |③-④-|
⑤口②⑤ |⑤-⑥-|
⑥③口口
32
口①①口 |①-②-|
③③口⑤ |③-④-|
④口⑥⑤ |⑤-⑥-|
⑤②②口
33
③①①口 |①-②-|
④口③口 |③-④-|
⑤②口⑤ |⑤-⑥-|
口口③⑥
34
⑤⑥⑥② |①-②-|
③①④③ |--③-|
③④①③ |④-⑤-|
②⑥⑥⑤ |--⑥-|
35
口口口② |①-②-|
③①口③ |--③-|
③口①③
②口口口

BPM: 110
④口口⑤
口⑤④口
口口口口 |④---⑤-|
⑤口口④

BPM: 103.5
口⑥⑥口
口口口口
口口口口
口⑥⑥口 |--⑥---|

BPM: 100
36
口口口口 |①---|
①口口① |----|
①口口①
口口口口

BPM: 134
②②②②
口③口口
口口④口 |②---|
口口口口 |③-④-|
37
口口口口 |①②③④--|
口口⑥口 |⑤-⑥-|
口⑤口口
①②③④

⑦口口口
⑧⑪口口
⑨口⑪口 |⑦⑧⑨⑩--|
⑩口口口 |⑪---|
38
③口②口 |①---|
口③①口 |②-③-|
②①口口
口口口口

口口⑨④
口口⑧⑤
⑨⑧口⑥ |④⑤⑥⑦--|
④⑤⑥⑦ |⑧-⑨-|
39
①口⑤⑥ |①---|
口②⑧⑦ |②-③-|
口⑨③口 |④---⑤⑥⑦⑧|
口口口④ |--⑨-|
40
③②口⑨ |①-②-|
④①⑧口 |③④⑤⑥--|
⑤⑦①② |--⑦-|
⑥⑤④③ |⑧-⑨-|

BPM: 144
41
口口口口 |①-②-|
①口口③ |③-④-|
口④②口
口①③口

BPM: 150
口⑦⑤口
口⑥⑧口
⑦口口⑤ |⑤-⑥-|
口口口口 |⑦-⑧-|

BPM: 154
42
口口口③ |①-②-|
口口口④ |③-④-|
口②②口
①①①①

BPM: 160
⑦⑥⑩口
⑧⑨口口
口口⑩⑤ |⑤---⑥⑦⑧⑨|
口口口口 |--⑩-|

BPM: 164
43
⑩口口⑤ |①②③④--|
口⑨⑥口 |⑤-⑥-|
口⑦⑧口 |⑦-⑧-|
①②③④ |⑨-⑩-|

BPM: 174
44
口⑧口① |①②③④⑤⑥|
⑧口口② |⑦-⑧-|
口口口③
⑦⑥⑤④

口口⑨⑭
口⑮⑩口
⑬⑫⑪口 |⑨⑩⑪⑫⑬-|
口口口口 |⑭-⑮-|

BPM: 180
45
⑦⑦⑦⑦ |①---|
⑤口口④ |②-③-|
口口口① |④-⑤-|
⑥③②⑥ |⑥-⑦-|

口口口口 |----|
口口口口 |----|
口口口口 |----|
口口口口

BPM: 70
46
口①①口 |①--②③--④|
③口口口
口口口口
②口口④

BPM: 80
口⑦⑦口
口口口⑤ |⑤--⑥⑦---|
口⑥⑥口
口口口口

BPM: 95
⑩口口⑩
口口口口
⑨口口⑨ |⑧--⑨⑩---|
口⑧⑧口

BPM: 100
口⑬口口
⑬⑫口口
口口⑫口
⑪口口⑪ |⑪--⑫⑬---|

BPM: 115
47
口口②③ |①②③④|
口口①④ |⑤⑥⑦⑧|
⑧⑤口口
⑦⑥口口

BPM: 120
⑭⑬口口
⑬口口口
口口⑨⑩ |⑨⑩⑪⑫|
口口⑫⑪ |⑬⑭--|

BPM: 134
48
口⑤口① |①-②③|
口②口口 |④-⑤-|
口口③口
①口口④

BPM: 140
口口⑥口
⑨⑨⑨口
口⑩口口 |⑥-⑦-|
口⑦⑧口 |⑧---⑨--⑩|

BPM: 144
49
③①⑤口 |①--②③--④|
口口口口 |⑤-⑥-|
②口④口
口⑥⑥口

BPM: 150
⑨口口⑧
口⑦⑦口
口口口口 |⑦-⑧-|
⑧口口⑨ |--⑨-|

BPM: 154
50
口①①口 |①-②③|
⑤口口② |④-⑤-|
口口③口
口④口口

BPM: 158
口口口口
口口⑨口
⑥⑧口口 |⑥-⑦-|
⑦口口口 |⑧-⑨-|

口⑪⑩口 |⑩-⑪-|
⑪口口⑩ |⑫-⑬-|
⑫口口⑬
口⑫⑬口
51
①口口① |①-②-|
口口口口 |③-④-|
口④①口
②口口③

口口口口
⑧口⑤口
⑥口⑦口 |⑤-⑥-|
口口口口 |⑦-⑧-|
52
口①①④ |①---②--③|
⑨⑤⑤⑦ |④-⑤-|
口口口③ |⑥-⑦-|
⑥②②⑧ |⑧-⑨-|
53
口④③口 |①-②-|
口口口口 |③-④-|
②口口①
口口口口

口口口⑨
⑥口口⑥
⑩⑤⑤⑧ |⑤-⑥-|
口⑦⑦口 |⑦--⑧⑨--⑩|
54
①④④口 |①---②--③|
口②②口 |④---|
口③③口 |----|
口⑤⑤口 |⑤---|
55
②①①② |①---|
①口口① |----|
②口口② |②---|
口口口口 |----|

不確定度: 0

最終更新:2016年04月25日 04:06