はなまるぴっぴはよいこだけ
A応P

BASIC

Level: 3
BPM: 172
Notes: 235

1
口口口口 |----|
口口口口 |----|
口口口口 |----|
口口口口 |----|
2
口口口口 |①---|
口口口口 |②---|
口口口口 |③---|
①②③④ |④---|
3
口口口口 |①---|
口口口口 |②---|
①②③④ |③---|
口口口口 |④---|
4
口口口口 |①---|
①②③④ |②---|
口口口口 |③---|
口口口口 |④---|
5
①②③④ |①---|
口口口口 |②---|
口口口口 |③---|
口口口口 |④---|
6
口口口口 |①---|
口①②口 |②---|
口③④口 |③---|
口口口口 |④---|
7
口口口口 |①---|
①口口② |②---|
③口口④ |③---|
口口口口 |④---|
8
口口口口 |①---|
口口口口 |----|
口②②口 |②---|
口①①口 |----|
9
口②②口 |①---|
口①①口 |----|
口口口口 |②---|
口口口口 |----|
10
①口口① |①---|
口口口口 |----|
口口口口 |----|
口口口口 |----|
11
口口口口 |①---|
①口口① |----|
口口口口 |----|
口口口口 |----|
12
口口口口 |①---|
口口口口 |----|
①口口① |----|
口口口口 |----|
13
口口口口 |①---|
口口口口 |----|
口口口口 |----|
①口口① |----|
14
口口口口 |①---|
口口口口 |②---|
①②③④ |③---|
口口口口 |④---|
15
口口口口 |①---|
①②③④ |②---|
口口口口 |③---|
口口口口 |④---|
16
口口口口 |①---|
口③④口 |②---|
口①②口 |③---|
口口口口 |④---|
17
①口口① |①---|
口口口口 |----|
口口口口 |----|
口口口口 |----|
18
口口口口 |①---|
口①①口 |----|
口口口口 |----|
口口口口 |----|
19
口口口口 |①---|
口口口口 |----|
口口口② |②---|
口①①口 |----|
20
口口口口 |①---|
口口口口 |----|
口②①口 |②---|
口口口口 |----|
21
口口口口 |①---|
①②口口 |----|
口口口口 |②---|
口口口口 |----|
22
口口①① |①---|
②②口口 |②---|
口口③③ |③---|
④④口口 |④---|
23
口口口口 |①---|
口口口口 |----|
口②口口 |②---|
口口①口 |----|
24
口②口口 |①---|
口口①口 |----|
口口口口 |②---|
口口口口 |----|
25
①口口① |①---|
②口口② |②---|
③口口③ |③---|
④口口④ |④---|
26
口④④口 |①---|
口③③口 |②---|
口②②口 |③---|
口①①口 |④---|
27
①口口① |①---|
②口口② |----|
口口口口 |②---|
口口口口 |----|
28
口口口口 |①---|
口②②口 |--②-|
①口口① |----|
口口口口 |----|
29
口口口口 |①---|
口口口口 |----|
口①②口 |②---|
口口口口 |----|
30
②口口② |①---|
口①口口 |--②-|
口口口口 |----|
口口口口 |----|
31
口口口口 |①---|
口②①口 |②---|
口④③口 |③---|
口口口口 |④---|
32
口口口口 |①---|
②口口① |②---|
④口口③ |③---|
口口口口 |④---|
33
口口④口 |①---|
口口③口 |②---|
口口②口 |③---|
口口①口 |④---|
34
口①口口 |①---|
口②口口 |②---|
口③口口 |③---|
口④口口 |④---|
35
口口口口 |①---|
④口口③ |②---|
②口口① |③---|
口口口口 |④---|
36
口④④口 |①---|
口③③口 |②---|
口②②口 |③---|
口①①口 |④---|
37
口口口口 |①---|
口口口口 |----|
口口②① |②---|
口口口口 |----|
38
口口口口 |①---|
口口口口 |----|
②①口口 |②---|
口口口口 |----|
39
口口口口 |①---|
①②口口 |----|
口口口口 |②---|
口口口口 |----|
40
口口口口 |①---|
口口①② |----|
口口口口 |②---|
口口口口 |----|
41
口口②① |①---|
口口口口 |----|
口口口口 |②---|
口口口口 |----|
42
②①口口 |①---|
口口口口 |----|
口口口口 |②---|
口口口口 |----|
43
口口口口 |①---|
口①①口 |②---|
口②②口 |③---|
口③③口 |----|
44
口口口口 |①---|
①口口① |②---|
②口口② |③---|
③口口③ |----|
45
口口口口 |①---|
口①①口 |②---|
口②②口 |③---|
④③③④ |④---|
46
口口口口 |①---|
口口口口 |----|
①口口① |----|
口口口口 |----|
47
口口口口 |①---|
口口口口 |----|
口①②口 |②---|
口口口口 |----|
48
②口口② |①---|
口①口口 |--②-|
口口口口 |----|
口口口口 |----|
49
口口口口 |①---|
口②①口 |②---|
口④③口 |③---|
口口口口 |④---|
50
口口口口 |①---|
②口口① |②---|
④口口③ |③---|
口口口口 |④---|
51
口口④口 |①---|
口口③口 |②---|
口口②口 |③---|
口口①口 |④---|
52
口①口口 |①---|
口②口口 |②---|
口③口口 |③---|
口④口口 |④---|
53
口口口口 |①---|
④口口③ |②---|
②口口① |③---|
口口口口 |④---|
54
口④④口 |①---|
口③③口 |②---|
口②②口 |③---|
口①①口 |④---|
55
口口口口 |①---|
口口口口 |②---|
口口口口 |③---|
①②③④ |④---|
56
口口口口 |①---|
口口口口 |②---|
①②③④ |③---|
口口口口 |④---|
57
口口口口 |①---|
①②③④ |②---|
口口口口 |③---|
口口口口 |④---|
58
①②③④ |①---|
口口口口 |②---|
口口口口 |③---|
口口口口 |④---|
59
口口口口 |①---|
口①②口 |②---|
口③④口 |③---|
口口口口 |④---|
60
口口口口 |①---|
①口口② |②---|
③口口④ |③---|
口口口口 |④---|
61
口口口口 |①---|
口口口口 |----|
口②②口 |②---|
口①①口 |----|
62
口②②口 |①---|
口①①口 |----|
口口口口 |②---|
口口口口 |----|
63
口口口口 |----|
①①①① |①---|
口口口口 |----|
口口口口 |----|

不確定度:0

最終更新:2016年07月14日 12:40