はなまるぴっぴはよいこだけ
A応P

EXTREME

Level: 9
BPM: 172
Notes: 605

1
口口口口 |----|
①口口口 |----|
②口口口 |----|
③口口口 |---①②③|
2
口口①口 |①-②-|
⑧②⑦口 |③-④-|
⑨⑥③口 |⑤-⑥-|
⑩④⑤口 |⑦--⑧⑨⑩|
3
口口口① |①-②-|
⑧②口⑦ |③-④-|
⑨⑥口③ |⑤-⑥-|
⑩④口⑤ |⑦--⑧⑨⑩|
4
口口①口 |①-②-|
⑧②⑦口 |③-④-|
⑨⑥③口 |⑤-⑥-|
⑩④⑤口 |⑦--⑧⑨⑩|
5
口口口① |①-②-|
口②口口 |③-④-|
口口口③
口④口口

⑥⑥⑥⑥
口口口口
口⑤⑤口 |--⑤-|
口口口口 |⑥---|
6
⑥④口⑤ |①---|
口⑦⑦⑤ |②-③-|
②口③口 |④-⑤-|
①口③① |⑥-⑦-|
7
口口口口 |--①-|
②⑤⑦口 |②-③-|
④③①⑥ |④-⑤-|
口口口口 |⑥-⑦-|
8
口①②③ |--①-|
①口⑥④ |②-③-|
②⑥口⑤ |④-⑤-|
③④⑤口 |--⑥-|
9
①口口口 |--①-|
③口口② |②-③-|
口⑤④口 |④-⑤-|
口⑦⑥口 |⑥-⑦-|
10
口口②口 |①-②-|
②口⑧③ |③-④-|
①口④⑦ |⑤-⑥-|
口口⑥⑤ |⑦-⑧-|
11
口口②① |①-②-|
②口⑦③ |③-④-|
①口④口 |⑤-⑥-|
口口⑥⑤ |--⑦-|
12
①①口口 |①-②-|
②②口③ |③-④-|
口口④口
口口口口

口口口口
⑧口口口
口⑥口口 |⑤-⑥-|
口⑤⑦口 |⑦-⑧-|
13
①①①① |①---|
⑤②②④ |②-③-|
⑥③③口 |④---|
口口口口 |⑤-⑥-|
14
口口⑧⑤ |①-②-|
⑥②③口 |③-④-|
口④口⑦ |⑤-⑥-|
口①①口 |⑦-⑧-|
15
口①口口 |①-②-|
口③口口 |③-④-|
④口②口
口口口口

口⑦口口
口口口口
口⑥口口 |⑤-⑥-|
口口⑤口 |--⑦-|
16
⑤口口① |①-②-|
口⑥②口 |③-④-|
⑦口口③ |⑤-⑥-|
口⑧④口 |⑦-⑧-|
17
口口口口 |①---|
①口口① |----|
口①①口 |----|
口口口口 |----|
18
口①口口 |①---|
①口①口 |----|
口①口口 |----|
口口口口 |----|
19
口口口口 |①-②-|
口④③② |③-④-|
⑤⑥⑦口 |⑤-⑥-|
①口口① |⑦---|
20
口②②口 |①-②-|
①④④① |③-④-|
③口口③
口口口口

口口口口
口口口⑦
口⑥⑥口 |⑤-⑥-|
⑤口口⑤ |--⑦-|
21
口①⑦口 |①-②-|
口口⑤口 |③-④-|
③⑥口口 |⑤-⑥-|
⑧口②④ |⑦-⑧-|
22
④④口③ |①---|
口口③② |②---|
口口②① |③-④-|
④④①口 |----|
23
⑤口口③ |①-②-|
②⑥④② |--③-|
口①①口 |④-⑤-|
口口口口 |⑥---|
24
⑥口口⑥ |①-②-|
⑦⑤⑤⑦ |③-④-|
②④③① |⑤-⑥-|
②④③① |--⑦-|
25
口①②口 |①---|
口③④口 |②---|
口②①口 |③---|
口④③口 |④---|
26
①口口④ |①-②-|
⑤口口⑧ |③-④-|
③口口② |⑤-⑥-|
⑦口口⑥ |⑦-⑧-|
27
④②②④ |①-②-|
口口口口 |③---|
⑤③③⑤ |④-⑤-|
⑥①①⑥ |--⑥-|
28
⑤③③④ |①-②-|
③①①③ |--③-|
口②②口 |--④-|
口口口口 |⑤---|
29
⑤⑤⑧口 |①-②-|
⑥⑥④⑦ |③-④-|
①①口③ |⑤-⑥-|
②②口口 |⑦-⑧-|
30
③口口① |①-②-|
口③②口 |--③-|
口②③口
①口口③

口口④⑤
⑤口口④
④口口⑤ |--④-|
⑤④口口 |--⑤-|
31
口口口口 |①-②-|
口口①口 |③-④-|
口②④口
口口③口

⑤⑥口口
口口⑧⑦
口口口口 |⑤-⑥-|
口口口口 |⑦-⑧-|
32
口口⑤⑤ |①-②-|
④②口口 |③-④-|
⑥⑥⑦口 |⑤-⑥-|
③①⑦⑦ |⑦---|
33
②①③④ |①-②-|
③④②① |③-④-|
口⑤⑥口 |⑤-⑥-|
口⑦⑧口 |⑦-⑧-|
34
口④③口 |①-②-|
①口口② |--③-|
④口口③ |--④-|
①⑤⑤② |--⑤-|
35
口口⑥① |①-②-|
⑤②口⑦ |③-④-|
口口口④ |⑤-⑥-|
③⑧口口 |⑦-⑧-|
36
口口口口 |①-②-|
口③③口 |③-④-|
④①①④
②口口②

⑤口口⑤
⑤口口⑤
口⑥口口 |⑤---|
口口⑥口 |⑥---|
37
口口口口 |①-②-|
⑥②③④ |③---|
口口①口 |④-⑤-|
口⑦⑤口 |⑥-⑦-|
38
口口口口 |①-②-|
口④②口 |③-④-|
③口口①
口口口口

口口口⑤
⑥口口口
口口口⑦ |⑤-⑥-|
⑧口口口 |⑦-⑧-|
39
⑤①①⑥ |①-②-|
⑦②②⑦ |③-④-|
⑦③③⑦ |⑤---|
⑥④④⑤ |⑥-⑦-|
40
口口口口 |----|
口口口口 |----|
口口口口 |----|
口口口口 |----|
41
口口①口 |--①-|
②口口口 |②-③-|
口③口口
口口口口

口口⑦口
口⑤口⑥
口口口口 |④-⑤-|
口口口④ |⑥-⑦-|
42
①③口口 |①-②-|
⑥⑥口口 |③-④-|
口②④口 |⑤-⑥-|
⑦⑦⑤口 |--⑦-|
43
口⑦⑦① |①-②-|
口⑤⑤② |③-④-|
口口口③ |⑤---|
口⑥⑥④ |⑥-⑦-|
44
口⑥⑥口 |--①-|
①④④口 |②-③-|
②口口口 |④---|
③⑤⑤口 |⑤-⑥-|
45
口口口口 |--①-|
①③⑤口 |②-③-|
⑦②④⑥ |④-⑤-|
口口口口 |⑥-⑦-|
46
①①①① |①-②-|
③口口② |③-④-|
口⑤④⑧ |⑤-⑥-|
⑦口口⑥ |⑦-⑧-|
47
①①①① |①---|
②口口② |----|
口口口口 |②---|
口②②口 |----|
48
③口口① |①-②-|
口③②口 |--③-|
口②③口
①口口③

口口④⑤
⑤口口④
④口口⑤ |--④-|
⑤④口口 |--⑤-|
49
口口口口 |①-②-|
口口①口 |③-④-|
口②④口
口口③口

⑤⑥口口
口口⑧⑦
口口口口 |⑤-⑥-|
口口口口 |⑦-⑧-|
50
口口⑤⑤ |①-②-|
④②口口 |③-④-|
⑥⑥⑦口 |⑤-⑥-|
③①⑦⑦ |⑦---|
51
②①③④ |①-②-|
③④②① |③-④-|
口⑤⑥口 |⑤-⑥-|
口⑦⑧口 |⑦-⑧-|
52
口⑤④口 |①-②-|
①③口② |③-④-|
⑤口口④ |--⑤-|
①⑥⑥② |--⑥-|
53
口口⑥① |①-②-|
⑤②口⑦ |③-④-|
口口口④ |⑤-⑥-|
③⑧口口 |⑦-⑧-|
54
口口口口 |①-②-|
口③③口 |③-④-|
④①①④
②口口②

⑤口口⑤
⑤口口⑤
口⑥口口 |⑤---|
口口⑥口 |⑥---|
55
口口①口 |①-②-|
⑧②⑦口 |③-④-|
⑨⑥③口 |⑤-⑥-|
⑩④⑤口 |⑦--⑧⑨⑩|
56
口口口① |①-②-|
⑧②口⑦ |③-④-|
⑨⑥口③ |⑤-⑥-|
⑩④口⑤ |⑦--⑧⑨⑩|
57
口口①口 |①-②-|
⑧②⑦口 |③-④-|
⑨⑥③口 |⑤-⑥-|
⑩④⑤口 |⑦--⑧⑨⑩|
58
口口口① |①-②-|
口②口口 |③-④-|
口口口③
口④口口

⑥⑥⑥⑥
口口口口
口⑤⑤口 |--⑤-|
口口口口 |⑥---|
59
口口口口 |①-②-|
④口①口 |③-④-|
口④口①
②口③③

⑥⑥口⑤
口⑧⑦口
口口⑦口 |⑤-⑥-|
口⑧口口 |⑦-⑧-|
60
口口③口 |①-②-|
④口口③ |③-④-|
④②口①
②口口口

⑥口口口
口⑥⑦口
口⑧⑧⑦ |⑤-⑥-|
口口⑤⑤ |⑦-⑧-|
61
口①②③ |--①-|
①口⑥④ |②-③-|
②⑥口⑤ |④-⑤-|
③④⑤口 |--⑥-|
62
①口口口 |--①-|
③口口② |②-③-|
口⑤④口 |④-⑤-|
口⑦⑥口 |⑥-⑦-|
63
①①①① |----|
口口口口 |①---|
口口口口 |----|
口口口口 |----|

不確定度:0

最終更新:2016年07月14日 12:40