霖が哭く
Power Of Nature

BASIC

Level: 6
BPM: 154
Notes: 490

1
口口口口 |----|
口口口口 |----|
口①①口 |--①-|
口口口口 |--|
2
①口口① |①---|
口口口口 |----|
口口口口 |----|
口口口口 |--|
3
口口口口 |----|
口①①口 |----|
口口口口 |--①-|
口口口口 |--|
4
口口口口 |①---|
①口③② |-②--|
①③口② |--③-|
口口口口 |--|
5
口口口口 |-①--|
②①口② |--②-|
口口①口 |---③|
③口口③ |--|
6
①口口① |①---|
口口口③ |-②--|
③②②口 |--③-|
口口口口 |--|
7
口口口口 |-①--|
①②②口 |--②-|
口口口① |---③|
口③③口 |--|
8
①③③① |①---|
口④④口 |-②--|
口④④口 |--③-|
②口口② |-④|
9
①①①① |----|
口口口口 |---①|
口口口口 |----|
口口口口 |--|
10
口口口口 |①-②-|
口⑤⑤口 |③-④-|
①口口② |-⑤--|
③口口④ |--|
11
口⑤⑤口 |①-②-|
②口口① |③-④-|
④口口③ |-⑤--|
口口口口 |--|
12
⑤口口⑤ |①-②-|
口口口口 |③-④-|
口口口口 |-⑤--|
①②③④ |--|
13
⑤⑤⑥⑥ |①-②-|
口②④口 |-③-④|
口①③口 |--⑤-|
口口口口 |⑥-|
14
口口口口 |①---|
②口口② |--②-|
口口口口 |----|
口①①口 |--|
15
口②②口 |①---|
口③③口 |--②-|
口④④口 |③-④-|
①⑤⑤① |⑤-|
16
口⑦⑦口 |①-②-|
⑥口口③ |③-④-|
⑤口口② |⑤-⑥-|
④口口① |⑦-|
17
①口口① |----|
口口口口 |①--②|
口②②口 |----|
口口口口 |--|
18
口⑤⑤口 |①-②-|
口口口口 |③-④-|
②口口① |-⑤--|
④口口③ |--|
19
口⑤⑤口 |①-②-|
①口口② |③-④-|
③口口④ |-⑤--|
口口口口 |--|
20
⑤口口⑤ |①-②-|
口口口口 |③-④-|
口口口口 |-⑤--|
④③②① |--|
21
⑥⑥⑤⑤ |①-②-|
口④②口 |-③-④|
口③①口 |--⑤-|
口口口口 |⑥-|
22
口口口口 |①---|
②口口② |--②-|
口口口口 |----|
口①①口 |--|
23
口②②口 |①---|
口③③口 |--②-|
口④④口 |③-④-|
①⑤⑤① |⑤-|
24
口⑦⑦口 |①-②-|
⑥口口③ |③-④-|
⑤口口② |⑤-⑥-|
④口口① |⑦-|
25
③口口③ |--①-|
④②②④ |②---|
⑤①①⑤ |-③-④|
口口口口 |-⑤|
26
口口口口 |----|
口口口口 |----|
口口③口 |①-②-|
口②①口 |③-|
27
口③③口 |①--②|
②口口② |--③-|
口①口口
口口口口

口口口口
口口口口
⑥⑥口口 |-④-⑤|
④④⑤⑤ |-⑥|
28
④④口口 |-①-②|
②②③③ |-③-④|
口口①①
口口口口

口口⑤⑤
口口口口
口⑦⑦口 |-⑤-⑥|
口⑥⑥口 |-⑦|
29
口口口口 |----|
口口口口 |---①|
口口口口 |-②-③|
①②③口 |--|
30
口口口口 |①-②-|
④⑤⑥口 |③--④|
口③②① |-⑤-⑥|
口口口口 |--|
31
口③②① |①-②-|
口口口口 |③--④|
口口口口 |-⑤-⑥|
④⑤⑥口 |--|
32
口口口口 |①-②-|
口口口口 |③---|
口③②① |④---|
口④④口 |--|
33
①口口① |①---|
口口口口 |---②|
口②②口 |----|
口口口口 |--|
34
口①①口 |①---|
口口口口 |---②|
口②②口 |---③|
③口口③ |--|
35
①口口① |①---|
口口口口 |---②|
口②②口 |----|
口口口口 |--|
36
口口口口 |①---|
口口口口 |----|
口口口口 |----|
①口口① |--|
37
③口口口 |①-②-|
④①②口 |③-④-|
⑤①②口 |⑤---|
口口口口 |--|
38
口口口③ |①-②-|
口②①④ |③-④-|
口②①⑤ |⑤---|
口口口口 |--|
39
口口口口 |①---|
口②③口 |②-③-|
口②③口 |----|
①口口① |--|
40
口口口口 |----|
口口口口 |----|
口口口口 |----|
口口口口 |--|
41
口口口③ |①-②-|
口②①④ |③-④-|
口②①⑤ |⑤---|
口口口口 |--|
42
③口口口 |①-②-|
④①②口 |③-④-|
⑤①②口 |⑤---|
口口口口 |--|
43
口口口口 |①---|
口③②口 |②-③-|
口③②口 |----|
①口口① |--|
44
口口口口 |①--②|
②②②② |----|
口口口口 |----|
①①①① |--|
45
②②②② |①--②|
口口口口 |----|
①①①① |----|
口口口口 |--|
46
口口口口 |①--②|
②②②② |----|
口口口口 |----|
①①①① |--|
47
②②②② |①--②|
口口口口 |----|
①①①① |----|
口口口口 |--|
48
口口口口 |①--②|
②②①① |----|
口口口口 |----|
①①②② |--|
49
①①②② |①--②|
口口口口 |----|
②②①① |----|
口口口口 |--|
50
口口口口 |①--②|
①①②② |----|
口口口口 |----|
②②①① |--|
51
②②①① |①--②|
口口口口 |----|
①①②② |----|
口口口口 |--|
52
口口口② |①---|
口①①口 |----|
口①①口 |②---|
口口口口 |--|
53
口口口口 |--①-|
口①口口 |----|
口口②口 |--②-|
口口口口 |--|
54
口口口口 |----|
口口口② |①---|
口口口口 |----|
①口口口 |②-|
55
口口口口 |----|
口口口口 |--①-|
口①口口 |----|
口口口口 |--|
56
口口口口 |①---|
②口口口 |----|
口口口口 |②---|
口口口① |--|
57
口①①口 |①---|
口口口口 |----|
口口口口 |--②-|
口②②口 |--|
58
①口口① |①---|
口口口口 |----|
②口口② |--②-|
口口口口 |--|
59
口口口口 |①---|
口①①口 |-②--|
口②②口 |--③-|
口③③口 |--|
60
③口口③ |-①--|
②口口② |--②-|
①口口① |---③|
口口口口 |--|
61
④口口④ |①---|
口③③口 |-②--|
口②②口 |--③-|
口①①口 |-④|
62
口口口口 |----|
口口口口 |---①|
口①①口 |----|
口口口口 |--|
63
口口口口 |①-②-|
口⑤⑤口 |③-④-|
①口口② |-⑤--|
③口口④ |--|
64
口②②口 |①---|
口口口口 |②---|
口①①口
口口口口
65
口口口口 |①-②-|
口⑤⑤口 |③-④-|
②口口① |-⑤--|
④口口③ |--|
66
口⑤⑤口 |①-②-|
①口口② |③-④-|
③口口④ |-⑤--|
口口口口 |--|
67
⑤口口⑤ |①-②-|
口口口口 |③-④-|
口口口口 |-⑤--|
④③②① |--|
68
⑥⑥⑤⑤ |①-②-|
口④②口 |-③-④|
口③①口 |--⑤-|
口口口口 |⑥-|
69
口口口口 |①---|
②口口② |--②-|
口口口口 |----|
口①①口 |--|
70
口②②口 |①---|
口③③口 |--②-|
口④④口 |③-④-|
①⑤⑤① |⑤-|
71
口⑦⑦口 |①-②-|
⑥口口③ |③-④-|
⑤口口② |⑤-⑥-|
④口口① |⑦-|
72
③口口③ |--①-|
④②②④ |②---|
⑤①①⑤ |-③-④|
口口口口 |-⑤|
73
口口口口 |----|
口口口口 |----|
口口③口 |①-②-|
口②①口 |③-|
74
②口口② |①---|
口口③口 |②--③|
口①口口
口口口口

口口口口
口④口口
口⑥⑤口 |-④-⑤|
口口口口 |-⑥|
75
口口口口 |----|
口口口口 |----|
口口③口 |①-②-|
口②①口 |③-|
76
②口口② |①---|
口口口口 |②---|
口①⑤⑤ |-③-④|
④④③③ |-⑤|
77
⑤⑤④④ |-①-②|
③③②② |-③-④|
①①口口 |-⑤-⑥|
⑦⑦⑥⑥ |-⑦|
78
口口口口 |①-②-|
口③①⑤ |-③-④|
口④②⑥ |--⑤-|
口口口口 |⑥-|
79
口口口口 |-①-②|
①⑤③口 |--③-|
②⑥④口 |④--⑤|
口口口口 |-⑥|
80
口口口口 |①---|
①口口① |-②--|
②口口② |--③-|
③口口③ |--|
81
①①①① |-①--|
口口口口 |----|
口口口口 |----|
口口口口 |--|

不確定度: 0

最終更新:2016年06月09日 22:22