霖が哭く
Power Of Nature

ADVANCED

Level: 9
BPM: 154
Notes: 735

1
口口口口 |----|
口口口口 |----|
口①②口 |--①②|
口③④口 |③④|
2
①口口① |①---|
口口口口 |----|
口口口口 |----|
口口口口 |--|
3
口①①口 |----|
口口口口 |----|
口口口口 |--①-|
口口口口 |--|
4
口口口口 |①-②-|
①②④③ |-③-④|
⑤⑥口口 |--⑤-|
口口口口 |⑥-|
5
口口口口 |-①-②|
口口口口 |--③-|
口口②① |④--⑤|
③④⑥⑤ |-⑥|
6
③①①⑤ |①-②-|
④②②⑥ |-③-④|
口口口口 |--⑤-|
口口口口 |⑥-|
7
⑤口口⑤ |-①-②|
⑥口口⑥ |--③-|
①口口③ |④--⑤|
②口口④ |-⑥|
8
⑦⑥⑥⑦ |①-②-|
口⑤⑤口 |-③-④|
④②②④ |--⑤-|
③①①③ |⑥⑦|
9
口口口口 |----|
①口口① |---①|
口口口口 |----|
①口口① |--|
10
口⑤⑤口 |①-②-|
口口口口 |③-④⑤|
④③②① |-⑥--|
口⑥⑥口 |--|
11
⑥口口⑥ |①-②-|
①②③④ |③-④⑤|
口口口口 |-⑥--|
口⑤⑤口 |--|
12
⑥口口⑥ |①②③-|
③④④口 |④--⑤|
②⑤⑤口 |-⑥--|
①口口口 |--|
13
⑤口口⑤ |①-②-|
②③④① |-③-④|
②④③① |--⑤-|
⑥口口⑥ |⑥-|
14
口口③口 |①-②③|
④口口① |--④-|
④口口①
口口②口

口⑥口口
口⑨⑧⑦
口口口口 |⑤⑥-⑦|
口⑤口口 |⑧⑨|
15
⑦⑧⑧⑦ |①②③④|
⑩⑨⑨⑩ |⑤⑥⑦-|
口③②① |⑧-⑨-|
口⑥⑤④ |⑩-|
16
口⑪⑩口 |①-②③|
口⑨⑧口 |④⑤⑥⑦|
⑤⑦⑥④ |⑧⑨⑩⑪|
①③②① |--|
17
⑩口⑦⑪ |①②③④|
⑫⑥口⑨ |⑤-⑥⑦|
⑧口⑤④ |-⑧⑨⑩|
口③②① |⑪⑫|
18
口⑤⑤口 |①-②-|
口口口口 |③-④⑤|
④③②① |-⑥--|
口⑥⑥口 |--|
19
⑥口口⑥ |①-②-|
①②③④ |③-④⑤|
口口口口 |-⑥--|
口⑤⑤口 |--|
20
⑥口口⑥ |①②③-|
③④④口 |④--⑤|
②⑤⑤口 |-⑥--|
①口口口 |--|
21
⑤口口⑤ |①-②-|
②③④① |-③-④|
②④③① |--⑤-|
⑥口口⑥ |⑥-|
22
口口③口 |①-②③|
④口口① |--④-|
④口口①
口口②口

口⑥口口
口⑨⑧⑦
口口口口 |⑤⑥-⑦|
口⑤口口 |⑧⑨|
23
⑦⑧⑧⑦ |①②③④|
⑩⑨⑨⑩ |⑤⑥⑦-|
口③②① |⑧-⑨-|
口⑥⑤④ |⑩-|
24
口口⑤③ |①-②③|
口口口口 |-④⑤-|
①口口①
口口④②

口⑦口口
⑧口口⑨
⑩口口口 |⑥⑦-⑧|
口⑥口口 |⑨⑩|
25
③口口③ |①②③-|
口④④口 |④---|
口口口①
②口口口

口⑤⑥⑦
口口口口
口⑤⑥⑦ |-⑤-⑥|
口口口口 |-⑦|
26
口口口口 |--①②|
②⑩⑨④ |-③④-|
口⑧⑦口 |⑤⑥⑦⑧|
①⑥⑤③ |⑨⑩|
27
口②①口 |①②-③|
③口口④ |④⑤⑥-|
⑤口口⑥
口口口口

⑨⑨口口
口口口口
口口⑧口 |-⑦-⑧|
⑦⑦⑧口 |-⑨|
28
⑦口⑤⑦ |-①-②|
②③①① |-③-④|
③②口⑤ |-⑤-⑥|
④⑥⑥④ |-⑦|
29
口口口口 |----|
①②③④ |---①|
口口口口 |-②-③|
口口口口 |-④|
30
口口口口 |①-②-|
③口口口 |③--④|
②口口④
①口口口

口口口口
口口口口
⑦⑥⑤口 |-⑤-⑥|
口口口口 |-⑦|
31
口口口① |①-②-|
④口口② |③--④|
口口口③
口口口口

口口口口
口⑤⑥⑦
口口口口 |-⑤-⑥|
口口口口 |-⑦|
32
口口口口 |①-②-|
③⑨⑧口 |③---|
②⑦⑥口 |④⑤⑥⑦|
①⑤④口 |⑧⑨|
33
①口口① |①---|
口口口口 |---②|
口口口口 |----|
口②②口 |--|
34
口口口口 |①---|
口③②口 |---②|
①口口① |---③|
②口口③ |--|
35
①①①① |①---|
口口口口 |---②|
口②②口 |----|
口口口口 |--|
36
口口口口 |①---|
口口⑥口 |----|
口⑤④口 |-②③④|
①③②① |⑤⑥|
37
①①②② |①-②-|
③口口口 |③-④-|
④⑨⑧口 |⑤-⑥⑦|
⑤⑦⑥口 |⑧⑨|
38
②②①① |①-②-|
口口口③ |③-④-|
口⑧⑨④ |⑤-⑥⑦|
口⑥⑦⑤ |⑧⑨|
39
口口口口 |①②③-|
④①②③ |④-⑤-|
⑤口口⑤
④口口口

⑨⑧⑦⑥
口⑪⑩口
口口口口 |⑥⑦⑧⑨|
口口口口 |⑩⑪|
40
口⑭⑬口 |①②③④|
⑫⑪⑩⑨ |⑤⑥⑦⑧|
⑧⑦⑥⑤ |⑨⑩⑪⑫|
④③②① |⑬⑭|
41
口口口③ |①-②-|
口⑧⑨④ |③-④-|
口⑥⑦⑤ |⑤-⑥⑦|
②②①① |⑧⑨|
42
①①②② |①-②-|
⑤⑦⑥口 |③-④-|
④⑨⑧口 |⑤-⑥⑦|
③口口口 |⑧⑨|
43
④⑦口⑥ |①②③-|
口⑨口⑧ |④-⑤-|
⑤⑪口⑩ |⑥⑦⑧⑨|
③②①口 |⑩⑪|
44
②口②口 |①--②|
①⑧①⑦ |----|
②⑥②⑤ |③④⑤⑥|
①④①③ |⑦⑧|
45
②④②③ |①--②|
①⑥①⑤ |----|
②⑧②⑦ |③④⑤⑥|
①口①口 |⑦⑧|
46
②④②③ |①--②|
①⑥①⑤ |----|
②⑧②⑦ |③④⑤⑥|
①口①口 |⑦⑧|
47
②口②口 |①--②|
④口③口 |--③-|
⑤口⑥口 |④-⑤-|
①口①口 |⑥-|
48
口②口② |①--②|
⑦①⑧① |----|
⑤②⑥② |③④⑤⑥|
③①④① |⑦⑧|
49
③②④② |①--②|
⑤①⑥① |----|
⑦②⑧② |③④⑤⑥|
口①口① |⑦⑧|
50
③②④② |①--②|
⑤①⑥① |----|
⑦②⑧② |③④⑤⑥|
口①口① |⑦⑧|
51
口②口② |①--②|
口③口④ |--③-|
口⑥口⑤ |④-⑤-|
口①口① |⑥-|
52
①①①① |①---|
口口口② |----|
口口口② |②---|
口口口口 |--|
53
口口口口 |--①-|
口口口口 |----|
①①口② |--②-|
口口口② |--|
54
口口口口 |----|
口口口② |①---|
口口口口 |----|
①①口口 |②-|
55
口口口口 |----|
口口口口 |--①-|
口①口口 |----|
口口口口 |--|
56
口口口口 |①---|
②口口口 |----|
口口口口 |②---|
口口口① |--|
57
口①①口 |①---|
口口口② |----|
口口口口 |--②-|
口②口口 |--|
58
口口口口 |①---|
①口口口 |----|
③口口③ |--②-|
②口①② |③-|
59
①②口口 |①-②-|
③④口口 |-③-④|
⑤⑥口口 |--⑤-|
口口口口 |⑥-|
60
口口口口 |-①-②|
口口⑥⑤ |--③-|
口口④③ |④--⑤|
口口②① |-⑥|
61
⑦⑥⑥⑦ |①-②-|
口⑤⑤口 |-③-④|
②口口④ |--⑤-|
①口口③ |⑥⑦|
62
口口口口 |----|
口口口口 |---①|
口①①口 |----|
①口口① |--|
63
口⑤⑤口 |①-②-|
①②③④ |③-④⑤|
口口口口 |-⑥--|
口⑥⑥口 |--|
64
口口口口 |①-②-③-|
⑥口口⑤ |④-⑤-⑥-|
④口口③
②口口①
65
④③②① |①-②-|
口⑤⑤口 |③-④⑤|
口口口口 |-⑥--|
口⑥⑥口 |--|
66
⑥口口⑥ |①-②-|
口口口口 |③-④⑤|
①②③④ |-⑥--|
口⑤⑤口 |--|
67
⑥口口⑥ |①②③-|
③④④口 |④--⑤|
②⑤⑤口 |-⑥--|
①口口口 |--|
68
⑤口口⑤ |①-②-|
②③④① |-③-④|
②④③① |--⑤-|
⑥口口⑥ |⑥-|
69
口口③口 |①-②③|
④口口① |--④-|
④口口①
口口②口

口⑥口口
口⑨⑧⑦
口口口口 |⑤⑥-⑦|
口⑤口口 |⑧⑨|
70
⑦⑧⑧⑦ |①②③④|
⑩⑨⑨⑩ |⑤⑥⑦-|
口③②① |⑧-⑨-|
口⑥⑤④ |⑩-|
71
口口⑤③ |①-②③|
口口口口 |-④⑤-|
①口口①
口口④②

口⑦口口
⑧口口⑨
⑩口口口 |⑥⑦-⑧|
口⑥口口 |⑨⑩|
72
③口口③ |①②③-|
口④④口 |④---|
口口口①
②口口口

口⑤⑥⑦
口口口口
口⑤⑥⑦ |-⑤-⑥|
口口口口 |-⑦|
73
②④⑥口 |--①②|
⑧口口⑦ |-③④-|
口口口⑨ |⑤⑥-⑦|
①③⑤口 |⑧⑨|
74
④⑧⑧④ |①②③-|
口⑤⑥口 |④--⑤|
①⑦⑦口 |-⑥-⑦|
③⑥⑤② |-⑧|
75
④口⑦② |--①②|
⑥⑧⑨⑥ |-③④-|
口口口口 |⑤⑥-⑦|
③⑤⑤① |⑧⑨|
76
④口口④ |①②③-|
口口口口 |④---|
口①②口
③口口③

口口口口
⑤口口口
⑤口口口 |-⑤-⑥|
⑦⑥⑥⑦ |-⑦|
77
①②口① |-①-②|
口②④③ |-③-④|
口口③④
口口口口

⑦口口⑦
⑤口口口
⑤口口口 |-⑤-⑥|
口⑥⑥口 |-⑦|
78
口③①口 |①-②-|
口口口⑤ |-③-④|
口口口⑥ |--⑤-|
④口口② |⑥-|
79
口⑤⑤口 |-①-②|
②⑥⑥口 |--③-|
①④④口 |④--⑤|
口③③口 |-⑥|
80
口口口口 |①-②-|
⑥⑤⑤⑥ |-③-④|
②④④② |--⑤-|
①③③① |⑥-|
81
①口口① |-①--|
口口口口 |----|
①口口① |----|
口口口口 |--|

不確定度: 0

最終更新:2016年06月09日 22:22