Love♥km [2]
dj TAKA feat. REN

EXTREME

Level: 9
BPM: 184
Notes: 595

1
口口口口 |----|
口口口口 |----|
口口口口 |----|
口口口口 |----|
2
⑥⑥⑧⑧ |①-②-|
⑦口口⑤ |③-④-|
②②④④ |⑤-⑥-|
③口口① |⑦-⑧-|
3
口口口口 |①-②-|
⑥⑦⑦⑤ |③-④-|
②②④④ |⑤-⑥-|
③口口① |--⑦-|
4
⑥⑥⑧⑧ |①-②-|
⑦口口⑤ |③-④-|
②②④④ |⑤-⑥-|
③口口① |⑦-⑧-|
5
口口口口 |①-②-|
⑥⑦⑦⑤ |③-④-|
②②④④ |⑤-⑥-|
③口口① |--⑦-|
6
⑥⑥⑧⑧ |①-②-|
⑦口口⑤ |③-④-|
②②④④ |⑤-⑥-|
③口口① |⑦-⑧-|
7
口口口口 |①-②-|
⑥⑦⑦⑤ |③-④-|
②②④④ |⑤-⑥-|
③口口① |--⑦-|
8
⑥⑥⑧⑧ |①-②-|
⑦口口⑤ |③-④-|
②②④④ |⑤-⑥-|
③口口① |⑦-⑧-|
9
口口口口 |--①-|
口口①口 |②-③-|
②③口口 |④-⑤-|
⑦⑤⑥④ |⑥-⑦-|
10
①口④口 |①-②-|
⑤口口口 |③-④-|
③⑥②口 |--⑤⑥|
⑦口⑧口 |⑦-⑧-|
11
口⑦⑥⑤ |①-②-|
口④口① |③-④-|
口口口口 |--⑤-|
口②口③ |⑥-⑦-|
12
⑤⑥⑦口 |①-②-|
④口②口 |③-④-|
口口口口 |--⑤-|
①口③口 |⑥-⑦-|
13
⑤口口⑥ |①-②-|
口②⑧④ |③-④-|
⑨⑦口口 |⑤-⑥-|
口③口① |⑦⑧-⑨|
14
⑤⑧口口 |①-②-|
⑦⑥口口 |③-④-|
口口④① |⑤-⑥-|
口口②③ |⑦-⑧-|
15
口口口口 |①-②-|
口口口口 |③-④-|
①④口口
③②口口

口口⑦⑥
口⑨⑤口
⑧口口口 |⑤-⑥-|
口口口口 |⑦⑧-⑨|
16
口口口口 |①-②-|
口口口口 |③-④-|
⑧④⑦③ |⑤-⑥-|
⑥②⑤① |⑦-⑧-|
17
⑧⑦⑥⑤ |①②③④|
①②③④ |⑤⑥⑦⑧|
口⑪口口 |⑨-⑩-|
口口⑩⑨ |⑪---|
18
口口口 |①---|
口口 |----|
口口
口口口

口口口口
口口口
口口口 |----|
口口口口 |②---|
19
口 |①---|
口 |----|



口口口口

口 |--②-|
口口口口 |----|
20
口口口口 |①-②-|
口口口 |③---|
口口口
口②③

口④口口
口口⑤口
口口⑥口 |④--⑤|
口口口 |--⑥-|
21
口口口口 |①-②-|
口口口 |③---|
口口口
③②口

口口④口
口⑤口口
口⑥口口 |④--⑤|
口口口 |--⑥-|
22
口口口口 |①-②-|
口口口 |③---|
口口口
口②③

口④口口
口口⑤口
口口⑥口 |④--⑤|
口口口 |--⑥-|
23
口 |①-②-|
口口口口 |③---|
口口口口
口③②口

口口口
口④⑤口
口口⑥口 |④--⑤|
口口口口 |--⑥-|
24
|①-②-|
口口口口 |③---|
口口口口
口②③口

口口口
口⑤④口
口⑥口口 |④--⑤|
口口口口 |--⑥-|
25
口口口口 |①-②-|
口口口 |③---|
口口口
③②口

口口口口
口④⑤口
口口⑥口 |④--⑤|
口口口 |--⑥-|
26
口口口口 |①-②-|
口口口 |③---|
口口口
口②③

口口口口
口⑤④口
口⑥口口 |④--⑤|
口口口 |--⑥-|
27
口④③口 |①---|
口口口② |②---|
⑤口口口 |③---|
口①口口 |④-⑤-|
28
③口口③ |--①-|
口⑤④口 |--②-|
口④⑤口 |③---|
②口①② |④-⑤-|
29
口③④口 |①---|
②口口口 |②---|
口口口⑤ |③---|
口口①口 |④-⑤-|
30
③口口③ |--①-|
口④⑤口 |--②-|
口⑤④口 |③---|
②①口② |④-⑤-|
31
口口口口 |①---|
口口口口 |②---|
①口口②
口②①口

口口口口
③④④③
口口口口 |③---|
⑤口⑤口 |④-⑤-|
32
②⑥⑥③ |--①-|
④⑤⑤④ |②-③-|
口④④口 |④---|
口①口① |⑤-⑥-|
33
口口口口 |①--②|
口口口口
口口
口口口②

口口口口
口口口口 |--③-|
|④--⑤|
⑤口③口

口口口口
口口口口
口口口
口⑥口口 |--⑥-|
34
口口 |①--②|
口口口②
口口口口
口口口口


⑤口③口 |--③-|
口口口口 |④--⑤|
口口口口

口口口
口⑥口口
口口口口
口口口口 |--⑥-|
35
口③口口 |----|
②口口① |----|
①口口② |--①-|
口口③口 |②-③-|
36
④⑤①口 |①---|
口②②口 |②---|
口②②口 |③---|
口①口③ |④-⑤-|
37
②口口④ |----|
③①①口 |--①-|
口口口③ |--②-|
④口口② |③-④-|
38
口②③口 |①-②-|
口④口① |③-④-|
①口④口
口③②口

口口口口
⑥口⑤口
⑦⑤口口 |⑤---|
口口口口 |⑥-⑦-|
39
④口口口 |①---|
口②口① |②-③-|
口⑤③① |----|
口口口口 |④-⑤-|
40
口口 |①---|
口口口口
口口口口
口口口口

口口口
②口口④ |②-③-|
口口口口 |----|
口③⑤口 |④-⑤-|
41
口口口口 |①---|

口口口口
口口口口

口口④②
口⑤ |②-③-|
口口③口 |----|
口口口口 |④-⑤-|
42
口口口口 |①---|
口口口口
口口口口
口口

口口口⑦
口口③口 |②-③-|
⑤⑥④口 |④-⑤-|
口②口 |⑥-⑦-|
43
③⑥口口 |①---|
⑤口口④ |②---|
④口口⑤ |③-④-|
②口⑥① |⑤-⑥-|
44
口口①口 |①-②-|
口②③口 |③---|
口②③口
口①口口

口口口⑤
口口口口
口口口口 |④---|
口④ |⑤-⑥-|
45
②口口④ |----|
③①①口 |--①-|
口口口③ |--②-|
口② |③-④-|
46
口②③口 |①-②-|
口④口① |③-④-|
①口④口
口③②口

口口口口
⑥口⑤口
口⑤口口 |⑤---|
口口 |⑥-⑦-|
47
③口口口 |----|
口①口口 |①-②-|
口④②口 |----|
口口口 |③-④-|
48
口口 |①---|
口口口口
口口口口
口口口口

口口口
②口口④ |②-③-|
口口口口 |----|
口③⑤口 |④-⑤-|
49
口口口口 |①---|

口口口口
口口口口

口口④②
口口 |②-③-|
口口③口 |----|
口口口口 |④---|
50
口⑥⑤⑦ |①---|
口口③口 |②-③-|
口口④口 |④-⑤-|
口①②① |⑥-⑦-|
51
口口口口 |①---|
口口口口
口口口口
口口

口口口口
口口口口 |②---|
口口口口


口口口口
口口
口口口口 |③---|
口口口

口口口口

口口口口
口口口口 |④---|
52
|①--②|
口⑤口 |--③-|
口④⑥② |④--⑤|
口口③口 |--⑥-|
53
⑤口口 |①--②|
口口口① |--③-|
口④口② |④---|
口口③口 |⑤---|
54
口③④ |①--②|
口口② |--③-|
口口① |④--⑤|
口⑥⑤ |--⑥-|
55
口口口口 |①---|
④③②口 |②---|
口口口① |③---|
口口口 |④---|
56
口② |①--②|
口口 |--③-|
③口
口口

口口口口
口口口⑤
口口口④ |④--⑤|
⑥口 |--⑥-|
57
口口口② |①--②|
口口口口 |--③-|
⑥口③④ |④---|
⑤口口① |⑤-⑥-|
58
|①--②|
口②③口 |--③-|
口④⑤口 |④--⑤|
⑥口口口 |--⑥-|
59
口口口 |①--②|
口②③ |--③-|
口口口
口口口

口口口口
口口口口
④口⑤口 |④-⑤-|
⑥⑦口 |⑥-⑦-|
60
|①--②|
口⑤口口 |--③-|
口④⑥② |④--⑤|
口口③口 |--⑥-|
61
口口口 |①--②|
口口口① |③-④-|
口口口②
口口④口

⑥口口
口口口
⑤口口 |⑤---|
口口口 |⑥-⑦-|
62
口口③④ |①--②|
口口口② |--③-|
口口口① |④--⑤|
口口⑥⑤ |--⑥-|
63
口口②口 |①---|
口③③① |②---|
④④口① |③---|
口口口 |④---|
64
口口② |①--②|
口口⑤ |--③-|
口③④ |④--⑤|
口⑥口 |--⑥-|
65
口⑥口② |①--②|
⑤口口口 |--③-|
口口③④ |④---|
口口① |⑤-⑥-|
66
口口口 |①--②|
口③② |--③-|
口⑤④ |④--⑤|
⑥口口 |--⑥-|
67
①口口 |①--②|
口③②口 |--③-|
口⑤口④ |④-⑤-|
⑦口口⑥ |⑥-⑦-|
68
|①-②-|
口口口口 |③-④-|
②口④口
口③口口

⑧口口口
⑦口⑤口
口⑥口口 |⑤-⑥-|
口口口口 |⑦-⑧-|
69
口口② |①-②-|
⑦①口口 |③-④-|
口口⑤③ |⑤-⑥-|
⑥④口口 |--⑦-|
70
口②①⑦ |①-②-|
口⑥口③ |③-④-|
⑤口⑧口 |⑤-⑥-|
口口口④ |⑦-⑧-|
71
口口②口 |①-②-|
①⑥⑥③ |③-④-|
⑤⑦⑦口 |⑤-⑥-|
口口④口 |--⑦-|
72
②口④口 |①-②-|
⑤口⑥口 |③-④-|
口⑦口口 |⑤-⑥-|
③口⑧① |⑦-⑧-|
73
②口④口 |①-②-|
口口口③ |③-④-|
口口口①
口口口口

口口口口
⑥⑥口口
口口⑦⑦ |⑤-⑥-|
口口口⑤ |--⑦-|
74
②口口⑦ |①-②-|
口⑥⑥③ |③-④-|
⑤⑧⑧口 |⑤-⑥-|
①口④口 |⑦-⑧-|
75
口③①口 |①-②-|
口⑤⑤口 |③-④-|
口⑥⑥口 |--⑤-|
②②④④ |--⑥-|
76
|①---|
口口 |----|
口口 |----|
|----|
77
口口口 |----|
口口口 |----|
口口口 |----|
口口口 |①---|

不確定度: 0

最終更新:2015年11月01日 02:24