Shining Wizard
96

BASIC

Level: 5
BPM: 158
Notes: 341

1
口口口口 |----|
口口口口 |----|
口口口口 |----|
口口口口 |----|
2
口口口口 |①---|
口①②口 |--②-|
③口口③ |----|
口口口口 |③---|
3
口①①口 |①---|
②口口③ |--②-|
口口口口 |--③-|
口口口口 |--|
4
口口口口 |①---|
口口口口 |----|
口①①口 |----|
口口口口 |----|
5
口口口口 |①---|
口①①口 |----|
口口口口 |----|
口口口口 |--|
6
口①①口 |①---|
口口口口 |----|
口口口口 |----|
口口口口 |----|
7
口口口口 |----|
口口口口 |----|
①口口口 |--①-|
口口口口 |--|
8
口口口口 |①---|
口口口口 |----|
口口口① |----|
口口口口 |----|
9
口口口口 |①---|
②①①② |--②-|
口口口口 |----|
口③口口 |③-|
10
口口口口 |①---|
口口口口 |----|
口口口口 |----|
口口①口 |----|
11
口口口口 |----|
①口口① |----|
口口口口 |--①-|
口口口口 |--|
12
①口口① |①---|
口口口口 |----|
口口口口 |----|
口口口口 |----|
13
口口口口 |①---|
口③③口 |--②-|
口②②口 |----|
口①①口 |③-|
14
①口口① |①---|
②口口② |--②-|
口③④口 |----|
口口口口 |③-④-|
15
①口口① |①---|
②口口② |--②-|
口口口口 |--③-|
口③④口 |④-|
16
①口口① |①---|
②口口② |--②-|
口③④口 |----|
口口口口 |③-④-|
17
①口口① |①---|
②口口② |--②-|
口口口口 |--③-|
口③④口 |④-|
18
口口口口 |①---|
口①②口 |--②-|
③口口③ |----|
口口口口 |③---|
19
口①①口 |①---|
②口口③ |--②-|
口口口口 |--③-|
口口口口 |--|
20
口口口口 |①---|
口①②口 |--②-|
③口口③ |----|
口口口口 |③---|
21
口①①口 |①---|
②口口③ |--②-|
口口口口 |--③-|
口口口口 |--|
22
①②口口 |--①-|
口口③④ |②---|
口⑤⑤口 |③-④-|
口口口口 |--⑤-|
23
口口口口 |--①-|
口口口口 |--②-|
口③③口 |--③-|
①口口② |--|
24
口口口② |①-②-|
口①①③ |③---|
口口口口 |④-⑤-|
⑦⑥⑤④ |⑥-⑦-|
25
①口口④ |--①-|
②口口口 |②-③-|
③口口口 |--④-|
口口口口 |--|
26
②③①口 |①-②-|
口口④⑤ |③---|
口⑥⑥口 |④-⑤-|
口口口口 |--⑥-|
27
口口口口 |--①-|
口口口口 |--②-|
③④口口 |--③-|
①口口② |④-|
28
口④④口 |①---|
②⑤⑤③ |②-③-|
口口①口 |--④-|
口口口口 |--⑤-|
29
口口口口 |--①-|
口口口口 |②-③-|
①②③口 |--④-|
口口⑤④ |⑤-|
30
口口口口 |--①-|
⑤⑥⑦口 |②-③-|
④③口口 |④-⑤-|
①②口口 |⑥-⑦-|
31
⑤④③② |--①-|
口口口① |②-③-|
口口口口 |--④-|
口口口口 |⑤-|
32
口口口口 |①-②-|
①口口口 |③-④-|
⑤④③② |⑤-⑥-|
⑥⑦口⑧ |⑦-⑧-|
33
②口口① |--①-|
口③④口 |--②-|
口口口口 |--③-|
口口口口 |④-|
34
口口口口 |①-②-|
口口口① |③-④-|
②③④口 |⑤-⑥-|
口⑤⑥⑦ |⑦---|
35
口口口口 |----|
口口②① |----|
口口口口 |--①-|
口口口口 |②-|
36
②③口口 |①---|
口①口口 |----|
口口口口 |----|
口口口口 |②-③-|
37
口口口口 |----|
口口口口 |----|
口口口口 |----|
口口口口 |--|
38
①②口口 |--①-|
口口③④ |②---|
口⑤⑤口 |③-④-|
口口口口 |--⑤-|
39
口口口口 |--①-|
口④④口 |--②-|
口③③口 |--③-|
①口口② |--④-|
40
①口口② |①-②-|
④⑤⑥口 |--③-|
口③③口 |--④-|
口口口口 |⑤-⑥-|
41
口口口口 |①---|
口口口① |--②-|
口②②口 |----|
口③③口 |③---|
42
①②口口 |--①-|
口口③④ |②---|
口⑤⑤口 |③-④-|
口口口口 |--⑤-|
43
口口口口 |--①-|
口④④口 |--②-|
口③③口 |--③-|
①口口② |--④-|
44
①口口① |①---|
②口口② |--②-|
③口口③ |----|
口口口口 |③---|
45
口②②口 |①---|
口口口口 |--②-|
口口口口 |----|
口①①口 |----|
46
①②口口 |--①-|
口口③④ |②---|
口⑤⑤口 |③-④-|
口口口口 |--⑤-|
47
口口口口 |--①-|
口④④口 |--②-|
口③③口 |--③-|
①口口② |--④-|
48
①口口② |①-②-|
④⑤⑥口 |--③-|
口③③口 |--④-|
口口口口 |⑤-⑥-|
49
口口口口 |①---|
口口口① |--②-|
口②②口 |----|
口③③口 |③---|
50
①②口口 |--①-|
口口③④ |②---|
口⑤⑤口 |③-④-|
口口口口 |--⑤-|
51
口口口口 |--①-|
口④④口 |--②-|
口③③口 |--③-|
①口口② |--④-|
52
①口口① |①---|
②口口② |--②-|
③口口③ |----|
口口口口 |③---|
53
口②②口 |①---|
口口口口 |--②-|
口口口口 |----|
口①①口 |----|
54
①②口口 |--①-|
口口③④ |②---|
口口口口 |③-④-|
口口口口 |----|
55
口口口口 |--①-|
口口口口 |②---|
①②口口 |③-④-|
口口③④ |----|
56
①②口口 |--①-|
口口④③ |②---|
口口口口 |③-④-|
口口口口 |----|
57
口口口口 |--①-|
口口口口 |②---|
①②口口 |③-④-|
口口④③ |----|
58
①②口口 |--①-|
口口③④ |②---|
口口口口 |--③-|
口口口口 |④---|
59
口口口口 |--①-|
口口口口 |②---|
①②④④ |③---|
口口③③ |④---|
60
口口口口 |①---|
口口①① |----|
口口口口 |----|
口口口口 |----|
61
①口口① |①---|
口口口口 |----|
口口口口 |----|
口口口口 |----|
62
口口口口 |①---|
①口口口 |----|
①口口口 |----|
口口口口
63
口②②口 |①---|
口口口① |----|
口口口① |----|
口口口口 |②---|
64
口口口口 |①---|
①口口口 |----|
①口口口 |----|
口口口口
65
口口口口 |①---|
口口口① |----|
口口口① |②---|
口②②口
66
口口口口 |①---|
①口口口 |----|
①口口口 |----|
口口口口
67
口②②口 |①---|
口口口① |----|
口口口① |----|
口口口口 |②---|
68
口口口口 |①---|
①口口口 |----|
①口口口 |----|
口口口口
69
口口口口 |①---|
口口口① |----|
口口口① |②---|
口②②口
70
①口口① |①---|
②口口② |--②-|
口③④口 |----|
口口口口 |③-④-|
71
①口口① |①---|
②口口② |--②-|
口口口口 |--③-|
口③④口 |④-|
72
①口口① |①---|
②口口② |--②-|
口③④口 |----|
口口口口 |③-④-|
73
①口口① |①---|
②口口② |--②-|
口口口口 |--③-|
口③④口 |④-|
74
口口口口 |①---|
口①②口 |--②-|
③口口③ |----|
口口口口 |③---|
75
口①①口 |①---|
②口口③ |--②-|
口口口口 |--③-|
口口口口 |--|
76
口口口口 |①---|
口①②口 |--②-|
③口口③ |----|
口口口口 |③---|
77
口①①口 |①---|
②口口③ |--②-|
口口口口 |--③-|
口口口口 |--|
78
口口口口 |①---|
口口口口 |----|
口①①口 |----|
口口口口 |----|


不確定度: 0

タグ:

+ タグ編集
  • タグ:

このサイトはreCAPTCHAによって保護されており、Googleの プライバシーポリシー利用規約 が適用されます。

最終更新:2013年03月29日 19:57