激アツ☆マジヤバ☆チアガール
日向美ビタースイーツ♪

BASIC

Level: 3
BPM: 170
Notes: 287

1
口口口口 |----|
口口口口 |----|
口口口口 |----|
口口口口 |----|
2
口口口口 |①---|
口①②口 |②---|
口③④口 |③---|
口口口口 |④---|
3
①口口口 |①---|
②口口口 |②---|
③口口口 |③---|
④口口口 |④---|
4
口口口④ |①---|
口口口③ |②---|
口口口② |③---|
口口口① |④---|
5
口口①口 |①---|
口口口口 |----|
口口口口 |----|
口口口口 |----|
6
口口口口 |①---|
口①②口 |②---|
口③④口 |③---|
口口口口 |④---|
7
①口口口 |①---|
②口口口 |②---|
③口口口 |③---|
④口口口 |④---|
8
口口口④ |①---|
口口口③ |②---|
口口口② |③---|
口口口① |④---|
9
口口①口 |①---|
口口口口 |----|
口口口口 |----|
口口口口 |----|
10
口口口口 |①---|
口①①口 |----|
口②②口 |②---|
口口口口 |----|
11
口口口口 |----|
口口口口 |----|
口口口口 |----|
口口口口 |----|
12
①①②② |①---|
口口口口 |----|
口口口口 |②---|
口口口口 |----|
13
口口口口 |①---|
口③③口 |②---|
口②②口 |③---|
口①①口 |----|
14
口③②① |①---|
口口口口 |②---|
口口口口 |③---|
口口口口 |----|
15
口口口口 |①---|
①口口① |②---|
②口口② |③---|
③④④③ |④---|
16
①①②② |①---|
口口口口 |----|
口口口口 |②---|
口口口口 |----|
17
口口口口 |①---|
口③③口 |②---|
口②②口 |③---|
口①①口 |----|
18
口③②① |①---|
口口口口 |②---|
口口口口 |③---|
口口口口 |----|
19
口口口口 |①---|
①口口① |②---|
②口口② |③---|
③④④③ |④---|
20
口口口口 |①---|
口②口口 |----|
口①口口 |②---|
口口口口 |----|
21
口①②口 |①---|
口口口口 |----|
口口口口 |②---|
口口口口 |----|
22
口口口口 |①---|
口口①口 |----|
口口②口 |②---|
口口口口 |----|
23
口口口口 |①---|
口口口口 |----|
口口口口 |②---|
口②①口 |----|
24
口口口口 |①---|
口口口口 |----|
①②口口 |②---|
口口口口 |----|
25
口口口口 |①---|
口口口口 |----|
口口①② |②---|
口口口口 |----|
26
口②②口 |①---|
口①①口 |----|
口口口口 |②---|
口口口口 |----|
27
②口口② |①---|
①口口① |----|
口口口口 |②---|
口口口口 |----|
28
口①口口 |①---|
口②口口 |----|
口口口口 |②---|
口口口口 |----|
29
口口口口 |①---|
口口②② |----|
口①口口 |②---|
口口口口 |----|
30
口口口口 |①---|
口口②口 |----|
口口①口 |②---|
口口口口 |----|
31
①①②② |①---|
口口口口 |----|
口口口口 |②---|
口口口口 |----|
32
口口口口 |①---|
口口口口 |----|
口②口口 |②---|
①口口口 |----|
33
口口口② |①---|
口口①口 |----|
口口口口 |②---|
口口口口 |----|
34
①①口口 |①---|
口口②② |--②-|
③③口口 |----|
口口口口 |③---|
35
口口口口 |--①-|
口③口口 |----|
口②口口 |②---|
口口①① |③---|
36
口①②口 |①---|
口③④口 |②---|
口口口口 |③---|
口口口口 |④---|
37
口口口口 |①---|
口口口口 |②---|
口①②口 |③---|
口③④口 |④---|
38
口口口口 |①---|
②口口② |②---|
①口口① |③---|
口③④口 |④---|
39
④口口④ |①---|
口③③口 |②---|
口①②口 |--③-|
口口口口 |④---|
40
口口口口 |①---|
②口口② |②---|
①口口① |③---|
口③④口 |④---|
41
口口口口 |①---|
④口口④ |②---|
③①②③ |③---|
口口口口 |④---|
42
②口口① |①---|
④②①③ |②---|
口④③口 |③---|
口口口口 |④---|
43
口①①口 |①---|
口②②口 |②---|
口③③口 |③---|
口口口口 |----|
44
口口口口 |①---|
口口口口 |②---|
④口口② |③---|
③口口① |④---|
45
口口口口 |①---|
口口口口 |②---|
口④②口 |③---|
口③①口 |④---|
46
②口口① |①---|
④②①③ |②---|
口④③口 |③---|
口口口口 |④---|
47
口①①口 |①---|
口②②口 |②---|
口③③口 |③---|
口口口口 |----|
48
口口口口 |①---|
口口口口 |②---|
④口口② |③---|
③口口① |④---|
49
口口口口 |①---|
口口口口 |②---|
④②①④ |--③-|
口③③口 |④---|
50
②口口① |①---|
④②①③ |②---|
口④③口 |③---|
口口口口 |④---|
51
口①①口 |①---|
口②②口 |②---|
口③③口 |③---|
口口口口 |----|
52
口口口口 |①---|
口口口口 |②---|
④口口② |③---|
③口口① |④---|
53
口口口口 |①---|
口口口口 |②---|
口④②口 |③---|
口③①口 |④---|
54
①①②② |----|
口③④口 |①---|
口口口口 |②---|
口口口口 |③-④-|
55
①①②② |----|
口③④口 |①---|
口口口口 |②---|
口口口口 |③-④-|
56
①①②② |----|
口③④口 |①---|
口口口口 |②---|
口口口口 |③-④-|
57
口口口口 |----|
口口口口 |----|
口口口口 |----|
口口口口 |----|
58
口口口口 |①---|
口①①口 |----|
口②②口 |②---|
口口口口 |----|
59
口口口口 |----|
口口口口 |----|
口口口口 |----|
口口口口 |----|
60
口口口口 |①---|
口口口口 |----|
口①口口 |----|
口口口口 |----|
61
口口口口 |①---|
口口口口 |----|
口口①口 |----|
口口口口 |----|
62
①①②② |①---|
口口口口 |----|
口口口口 |②---|
口口口口 |----|
63
口口口口 |①---|
口③③口 |②---|
口②②口 |③---|
口①①口 |----|
64
口③②① |①---|
口口口口 |②---|
口口口口 |③---|
口口口口 |----|
65
口口口口 |①---|
①口口① |②---|
②口口② |③---|
③④④③ |④---|
66
①①②② |①---|
口口口口 |----|
口口口口 |②---|
口口口口 |----|
67
口口口口 |①---|
口③③口 |②---|
口②②口 |③---|
口①①口 |----|
68
口③②① |①---|
口口口口 |②---|
口口口口 |③---|
口口口口 |----|
69
口口口口 |①---|
①口口① |②---|
②口口② |③---|
③④④③ |④---|
70
口口口口 |①---|
口口口口 |----|
口①口口 |----|
口口口口 |----|
71
口口口口 |①---|
口②②口 |--②-|
口口①口 |----|
口口口口 |----|

不確定度: 1

最終更新:2015年10月17日 16:03