激アツ☆マジヤバ☆チアガール
日向美ビタースイーツ♪

ADVANCED

Level: 6
BPM: 170
Notes: 496

1
口口口口 |----|
口口口口 |----|
口口口口 |----|
口口口口 |----|
2
①②③④ |①---|
口口口口 |②---|
口口口口 |③---|
④③②① |④---|
3
口口口口 |①---|
口③③口 |②---|
口②①口 |③---|
口④④口 |④---|
4
⑤口口⑤ |①---|
口④口口 |②---|
②口③① |③-④-|
口口口口 |--⑤-|
5
口口口口 |----|
口口口口 |----|
口口口口 |----|
口口口口 |----|
6
①②③④ |①---|
口口口口 |②---|
口口口口 |③---|
④③②① |④---|
7
口口口口 |①---|
口③③口 |②---|
口②①口 |③---|
口④④口 |④---|
8
⑤口口⑤ |①---|
口④口口 |②---|
②口③① |③-④-|
口口口口 |--⑤-|
9
口口口口 |----|
口口口口 |----|
口②①口 |--①-|
口口③口 |②-③-|
10
口①口口 |①---|
①口②② |--②-|
口口③③ |③---|
口口口口 |----|
11
口口口口 |----|
口口口口 |----|
口①①口 |----|
口口口口 |①---|
12
①④④口 |①---|
口口口③ |②---|
①口口口 |③---|
口②②③ |④---|
13
⑤口口⑤ |①-②-|
口口口口 |③-④-|
口④③口 |⑤---|
口②①口 |----|
14
②口口③ |①---|
①口口口 |②---|
口口口② |③---|
③口口① |----|
15
①①⑧⑧ |①-②-|
⑦⑦②② |③-④-|
③③⑥⑥ |⑤-⑥-|
⑤⑤④④ |⑦-⑧-|
16
①④④口 |①---|
口口口③ |②---|
①口口口 |③---|
口②②③ |④---|
17
⑤口口⑤ |①-②-|
口口口口 |③-④-|
口④③口 |⑤---|
口②①口 |----|
18
②口口③ |①---|
①口口口 |②---|
口口口② |③---|
③口口① |----|
19
④④③③ |①---|
④④③③ |②---|
②②①① |③---|
②②①① |④---|
20
⑥口口⑤ |--①-|
口口口口 |②-③-|
口④③口 |④---|
口②①口 |⑤-⑥-|
21
⑤⑥⑦口 |①-②-|
口②①口 |③-④-|
口④③口 |--⑤-|
口口口口 |⑥-⑦-|
22
口口口口 |①-②-|
①②④③ |③-④-|
⑤⑥⑧⑦ |⑤-⑥-|
口口口口 |⑦-⑧-|
23
①口口⑥ |①-②-|
口口⑤② |③-④-|
③口口口 |--⑤-|
口口口④ |⑥---|
24
口口口口 |--①-|
口⑤④口 |②-③-|
口口⑥口 |④---|
①②③口 |⑤-⑥-|
25
⑥口口⑥ |①-②-|
①⑤⑤② |③-④-|
③口口④ |----|
口口口口 |⑤-⑥-|
26
④①①④ |----|
口③③口 |①---|
口口口口 |②---|
口②②口 |③-④-|
27
口①①口 |----|
口口口口 |①---|
口口④③ |②---|
口②②口 |③-④-|
28
③口口② |①---|
③口口② |--②-|
口①口口 |----|
口口口口 |③---|
29
口口口口 |--①-|
口①②口 |--②-|
③④口口 |----|
口②①口 |③-④-|
30
②口口③ |①---|
②口口③ |--②-|
口口①口 |----|
口口口口 |③---|
31
口①①口 |①---|
口口口口 |②-③-|
③口口② |----|
口③②口 |----|
32
口口口口 |----|
⑤④口口 |①-②-|
口③②口 |③-④-|
口口①口 |⑤---|
33
口④③口 |----|
口口②① |①---|
口口口① |②-③-|
口口口口 |④---|
34
②口③① |①---|
口口口口 |--②-|
口口口口 |----|
①③口② |③---|
35
②①口② |--①-|
③口口③ |----|
口口口口 |②---|
口口①口 |③---|
36
④②②④ |①---|
口口口口 |②---|
口口口口 |③---|
③①①③ |④---|
37
口②②口 |①---|
④口口③ |②---|
⑥口口⑤ |③-④-|
口①①口 |⑤-⑥-|
38
口口②① |①---|
口④③口 |②---|
口⑥⑤口 |③-④-|
②①口口 |⑤-⑥-|
39
口口口④ |①-②-|
⑤⑤口③ |③-④-|
⑥⑥口② |--⑤-|
口口口① |⑥---|
40
①②口口 |①---|
口③④口 |②---|
口⑤⑥口 |③-④-|
口口①② |⑤-⑥-|
41
④口口口 |①-②-|
③口口口 |③-④-|
②口口口
①口口口

口口口⑧
口⑥⑤⑧
⑧口⑦口 |⑤-⑥-|
⑧口口口 |⑦-⑧-|
42
③②①口 |----|
③②①口 |①---|
口①②③ |②---|
口①②③ |③---|
43
口口口① |①-②-|
口口②口 |③-④-|
⑤③口口 |----|
④⑤口口 |--⑤-|
44
③口②② |--①-|
⑤④①① |②---|
口口④⑤ |③---|
口口口③ |④-⑤-|
45
口⑤④口 |--①-|
口⑥③口 |②-③-|
口②口口 |④-⑤-|
口①口口 |⑥---|
46
④④⑤⑤ |①-②-|
⑥⑥③③ |③-④-|
②②⑦⑦ |⑤-⑥-|
口口①① |⑦---|
47
②口口口 |①---|
口口③① |②-③-|
②③口口 |----|
口口口① |----|
48
口⑤⑥口 |①-②-|
口⑦⑧口 |③-④-|
④口口③ |⑤-⑥-|
②口口① |⑦-⑧-|
49
⑦口口口 |①-②-|
⑦口口口 |③-④-|
⑤④③⑤ |--⑤-|
⑥②①⑥ |⑥-⑦-|
50
口②③① |--①-|
口②口口 |②-③-|
④⑥⑤口 |④-⑤-|
④⑥口口 |⑥---|
51
口口口口 |①---|
口②③口 |②-③-|
④口口① |----|
口④①口 |--④-|
52
口口口口 |--①-|
口②⑤口 |②---|
口④①③ |③---|
口口③口 |④-⑤-|
53
①口口① |--①-|
口②口口 |--②-|
口口③口 |③-④-|
口④⑤口 |⑤---|
54
①②口口 |----|
口④③口 |①---|
口③④口 |②---|
口口②① |③-④-|
55
口口②① |----|
口③④口 |①---|
口④③口 |②---|
①②口口 |③-④-|
56
①②口口 |----|
口④③口 |①---|
口③④口 |②---|
口口②① |③-④-|
57
口口②① |----|
口口口口 |①---|
口④③口 |②-③-|
①②⑤口 |④-⑤-|
58
口①口口 |①---|
①口②② |--②-|
口口③③ |③---|
口口口口 |----|
59
口口口口 |----|
口口口口 |----|
口口口口 |----|
口口口口 |----|
60
口口口口 |----|
口口口口 |----|
口口口口 |----|
口口口口 |----|
61
口口口① |--①-|
②口口口 |②-③-|
口⑥⑥③ |④-⑤-|
④口口⑤ |⑥---|
62
①④④口 |①---|
口口口③ |②---|
①口口口 |③---|
口②②③ |④---|
63
⑤口口⑤ |①-②-|
口口口口 |③-④-|
口④③口 |⑤---|
口②①口 |----|
64
②口口③ |①---|
①口口口 |②---|
口口口② |③---|
③口口① |----|
65
①①⑧⑧ |①-②-|
⑦⑦②② |③-④-|
③③⑥⑥ |⑤-⑥-|
⑤⑤④④ |⑦-⑧-|
66
①④④口 |①---|
口口口③ |②---|
①口口口 |③---|
口②②③ |④---|
67
⑤口口⑤ |①-②-|
口口口口 |③-④-|
口④③口 |⑤---|
口②①口 |----|
68
②口口③ |①---|
①口口口 |②---|
口口口② |③---|
③口口① |----|
69
④④③③ |①---|
④④③③ |②---|
②②①① |③---|
②②①① |④---|
70
口口口口 |①---|
口口口口 |----|
口口口口 |----|
口①①口 |----|
71
②口口② |①---|
②口口② |--②-|
口①①口 |----|
口口口口 |----|

不確定度: 1

最終更新:2015年10月17日 16:02