激アツ☆マジヤバ☆チアガール
日向美ビタースイーツ♪

EXTREME

Level: 8
BPM: 170
Notes: 643

1
口口口口 |----|
口口口口 |----|
口口口口 |----|
口口口口 |----|
2
①③②④ |①---|
口口口口 |②---|
口口口口 |③---|
④②③① |④---|
3
⑥⑥口口 |①-②-|
口①②口 |③-④-|
口③④口 |⑤---|
⑤⑤口口 |⑥---|
4
口口口① |①-②-|
②④口① |③-④-|
②④口③
口口口③

⑦⑥⑥⑦
⑦口口⑦
口口口口 |⑤-⑥-|
口⑤⑤口 |--⑦-|
5
口口口② |----|
口口①口 |----|
口口口口 |--①-|
口口口口 |②---|
6
①③②④ |①---|
口口口口 |②---|
口口口口 |③---|
④②③① |④---|
7
⑥⑥口口 |①-②-|
口①②口 |③-④-|
口③④口 |⑤---|
⑤⑤口口 |⑥---|
8
口口口① |①-②-|
②④口① |③-④-|
②④口③
口口口③

⑦⑥⑥⑦
⑦口口⑦
口口口口 |⑤-⑥-|
口⑤⑤口 |--⑦-|
9
口口口口 |①-②-|
口口口口 |③-④-|
①口口②
③口口④

口口⑧口
口⑧⑦口
⑧⑦⑥口 |⑤-⑥-|
口⑤口口 |⑦-⑧-|
10
①①口② |①---|
①口口③ |--②-|
口口口口 |③---|
②③口口 |----|
11
口口④④ |①---|
口②口口 |--②-|
口口③口 |③---|
④④口① |④---|
12
①口口④ |①---|
①③⑥④ |②-③-|
①⑤②④ |④---|
口口口口 |⑤-⑥-|
13
②⑤⑤④ |①-②-|
口口口口 |③-④-|
口口口口 |⑤---|
①⑤⑤③ |----|
14
②④⑤⑤ |①-②-|
口口③③ |③-④-|
⑤⑤①① |⑤---|
①③口口 |----|
15
①⑤⑦③ |①-②-|
②⑥⑧④ |③-④-|
口口口口 |⑤-⑥-|
③⑦⑤① |⑦-⑧-|
16
①口口④ |①---|
①③⑥④ |②-③-|
①⑤②④ |④---|
口口口口 |⑤-⑥-|
17
②⑤⑤④ |①-②-|
口口口口 |③-④-|
口口口口 |⑤---|
①⑤⑤③ |----|
18
②④⑤⑤ |①-②-|
口口③③ |③-④-|
⑤⑤①① |⑤---|
①③口口 |----|
19
④④③③ |①---|
④④③③ |②---|
②②①① |③---|
②②①① |④---|
20
口口口⑤ |--①-|
口口④④ |②-③-|
口口⑥口 |④---|
口③②① |⑤-⑥-|
21
口①口口 |①-②-|
口②口口 |③-④-|
口③口口 |--⑤-|
⑥④⑦⑤ |⑥-⑦-|
22
①口口③ |①-②-|
口⑤⑦口 |③-④-|
②⑥⑧④ |⑤-⑥-|
口口口口 |⑦-⑧-|
23
口④④⑥ |①-②-|
③口⑤③ |③-④-|
②口口② |--⑤-|
口①①口 |⑥---|
24
口口④④ |--①-|
口③口口 |②-③-|
口口②口 |④---|
⑤①口⑥ |⑤-⑥-|
25
④③口口 |①-②-|
③⑥②⑤ |③-④-|
口②④① |----|
口⑥①⑤ |⑤-⑥-|
26
④口口④ |----|
②口口口 |①---|
口①口口 |②---|
③口②③ |③-④-|
27
口口口③ |----|
口口④② |①---|
口口①口 |②---|
口②口口 |③-④-|
28
②口口口 |①---|
③口口口 |--②-|
口①口口 |----|
口口口口 |③---|
29
口口口口 |--①-|
口②①③ |--②-|
②口④① |----|
口口口口 |③-④-|
30
口口口口 |①---|
口②口口 |--②-|
口③口口 |----|
口①口口 |③---|
31
③②②② |①---|
③口口口 |②-③-|
口口口③ |----|
①①①③ |----|
32
④口口⑤ |----|
③③口口 |①-②-|
②②②口 |③-④-|
①①①① |⑤---|
33
口④③口 |----|
口口②① |①---|
口口口① |②-③-|
口口口口 |④---|
34
口⑤③① |①---|
口口④② |②-③-|
口口口口 |--④-|
①③⑤口 |⑤---|
35
②口口口 |①-②-|
③①口口 |--③-|
口口⑤④ |④---|
口口口② |⑤---|
36
①①②① |①-②-|
③③④③ |③-④-|
⑤⑤⑥⑤ |⑤-⑥-|
⑦⑦⑧⑦ |⑦-⑧-|
37
①①口① |①---|
口口②口 |②---|
口口③口 |③---|
口口④口 |④---|
38
口口②① |①---|
③口⑤口 |②---|
口④口⑥ |③-④-|
②①口口 |⑤-⑥-|
39
口口④⑥ |①-②-|
口③⑤口 |③-④-|
口⑤②口 |--⑤-|
⑥①口口 |⑥---|
40
①②口口 |①---|
口⑤口③ |②---|
⑥口④口 |③-④-|
口口①② |⑤-⑥-|
41
口④⑧⑦ |①-②-|
⑧口③口 |③-④-|
口②口⑧ |⑤-⑥-|
⑥⑧①⑤ |⑦-⑧-|
42
②①口③ |----|
口③②① |①---|
①②③口 |②---|
③口①② |③---|
43
口②④口 |①-②-|
⑥口口口 |③-④-|
⑤⑦⑦口 |⑤---|
口①③口 |⑥-⑦-|
44
口口口⑤ |--①-|
口②①口 |②---|
口口口④ |③---|
②③③① |④-⑤-|
45
口⑤①口 |--①-|
⑤②口③ |②-③-|
①口④⑥ |④-⑤-|
口③⑥口 |⑥---|
46
③口口③ |①-②-|
口①①口 |③-④-|
口④④口
②口口②

口⑤⑤口
⑦⑦⑦⑦
口口口口 |⑤-⑥-|
口⑥⑥口 |⑦---|
47
③口口① |①---|
口⑥⑤④ |②-③-|
③②②① |④-⑤-|
口口口口 |⑥---|
48
⑧⑥④② |①-②-|
口口口口 |③-④-|
口口口口 |⑤-⑥-|
⑦⑤③① |⑦-⑧-|
49
口口口口 |①-②-|
④②③① |③-④-|
④②③①
口口口口

⑤口⑦⑥
口口口⑦
口口口口 |--⑤-|
⑥口口⑤ |⑥-⑦-|
50
⑤①口④ |--①-|
①⑤④口 |②-③-|
③⑥⑥② |④-⑤-|
⑥③②⑥ |⑥---|
51
③①①② |①---|
③口口② |②-③-|
口⑥⑤④ |④-⑤-|
口⑦⑦口 |⑥-⑦-|
52
⑤口口⑤ |--①-|
口②①口 |②---|
④③③④ |③---|
②口口① |④-⑤-|
53
口口口口 |--①-|
②①④① |--②-|
口口口口 |③-④-|
⑤①③① |⑤---|
54
②②口口 |①---|
口口口口 |②---|
②②口口
口①口①

口口③③
口④④口
口口③③ |③---|
⑤口口⑤ |④-⑤-|
55
①口口② |----|
口口口口 |①---|
口口口口 |②---|
口③④口 |③-④-|
56
①①②② |----|
口③③口 |①---|
①①②② |②---|
④口口④ |③-④-|
57
①口⑤② |----|
口⑤④口 |①---|
⑤④③口 |②-③-|
口口口口 |④-⑤-|
58
①①口② |①---|
①口口③ |--②-|
口口口口 |③---|
②③口口 |----|
59
口口口口 |①---|
口②口口 |--②-|
口口③口 |③---|
口口口① |----|
60
口口口口 |①---|
口口②口 |--②-|
口③口口 |③---|
①口口口 |----|
61
口①⑥⑥ |--①-|
口③②口 |②-③-|
口⑤④口 |④-⑤-|
⑥⑥口口 |⑥---|
62
①口口④ |①---|
①③⑥④ |②-③-|
①⑤②④ |④---|
口口口口 |⑤-⑥-|
63
②⑤⑤④ |①-②-|
口口口口 |③-④-|
口口口口 |⑤---|
①⑤⑤③ |----|
64
②④⑤⑤ |①-②-|
口口③③ |③-④-|
⑤⑤①① |⑤---|
①③口口 |----|
65
①⑤⑦③ |①-②-|
②⑥⑧④ |③-④-|
口口口口 |⑤-⑥-|
③⑦⑤① |⑦-⑧-|
66
①口口④ |①---|
①③⑥④ |②-③-|
①⑤②④ |④---|
口口口口 |⑤-⑥-|
67
②⑤⑤④ |①-②-|
口口口口 |③-④-|
口口口口 |⑤---|
①⑤⑤③ |----|
68
②④⑤⑤ |①-②-|
口口③③ |③-④-|
⑤⑤①① |⑤---|
①③口口 |----|
69
④④③③ |①---|
④④③③ |②---|
②②①① |③---|
②②①① |④---|
70
口口口口 |①---|
口口口口 |②-③-|
口③②⑤ |--④-|
口④⑥① |⑤-⑥-|
71
口③③口 |①---|
①③②③ |②-③-|
③③口口 |----|
③③口口 |----|

不確定度: 1

最終更新:2015年10月17日 16:01