Rock The Club
Expander

BASIC

Level: 4
BPM: 260
Notes: 315

實際BPM: 130
1
口口口口 |----|
口口口口 |----|
口口口口 |----|
口口口口 |----|
2
①口口口 |①---|
②口口口 |②---|
③口口口 |③---|
④口口口 |④---|
3
口口口① |①---|
口口口② |②---|
口口口③ |③---|
口口口④ |④---|
4
①口口口 |①---|
②口口口 |②---|
③口口口 |③---|
④口口口 |④---|
5
口口口① |①---|
口口口② |②---|
口口口③ |③---|
口口口④ |④---|
6
口①口口 |①---|
②口口口 |②---|
口③口口 |③---|
④口口口 |④---|
7
口口①口 |①---|
口口口② |②---|
口口③口 |③---|
口口口④ |④---|
8
①口口口 |①---|
口②口口 |②---|
③口口口 |③---|
口④口口 |④---|
9
口口口① |①---|
口口②口 |②---|
口口口③ |③---|
口口④口 |④---|
10
口③③④ |①---|
口②②口 |②---|
口①①口 |③---|
口口口口 |④---|
11
④③③口 |①---|
口②②口 |②---|
口①①口 |③---|
口口口口 |④---|
12
口口口口 |①---|
口②口② |----|
①口①口 |②---|
口口口口 |----|
13
①口①口 |①---|
口口口口 |----|
口口口口
口口口口

②口口②
口口口口
口口口口 |----|
口口口口 |②---|
14
口④②口 |①---|
③口口① |②---|
口口口口 |③---|
口口口口 |④---|
15
口口口口 |①---|
口④②口 |②---|
③口口① |③---|
口口口口 |④---|
16
口口口口 |①---|
口口口口 |②---|
口口口口 |③---|
④③②① |④---|
17
口口口口 |①---|
口口口口 |②---|
④口口② |③---|
口③①口 |④---|
18
②口口④ |①---|
口①③口 |②---|
口口口口 |③---|
口口口口 |④---|
19
口口口口 |①---|
②口口④ |②---|
口①③口 |③---|
口口口口 |④---|
20
口口口口 |①---|
口口口口 |②---|
口口口口 |③---|
①②③④ |④---|
21
口口口口 |①---|
口口口口 |②---|
②口口④ |③---|
口①③口 |④---|
22
②口口④ |①---|
①口口③ |②---|
口口口口 |③---|
口口口口 |④---|
23
口口口口 |①---|
②口口④ |②---|
①口口③ |③---|
口口口口 |④---|
24
①②③④ |①---|
口口口口 |②---|
口口口口 |③---|
口口口口 |④---|
25
口①③口 |①---|
口②④口 |②---|
口口口口 |③---|
口口口口 |④---|
26
④口口② |①---|
③口口① |②---|
口口口口 |③---|
口口口口 |④---|
27
口口口口 |①---|
④口口② |②---|
③口口① |③---|
口口口口 |④---|
28
④③②① |①---|
口口口口 |②---|
口口口口 |③---|
口口口口 |④---|
29
口口口口 |①---|
③口口① |②---|
④口口② |③---|
口口口口 |④---|
30
口口口口 |----|
口口口口 |----|
口口口口 |----|
口口口口 |----|
31
口口口口 |①---|
④口口② |②---|
口③①口 |③---|
口口口口 |④---|
32
口口口口 |①---|
口④②口 |②---|
③口口① |③---|
口口口口 |④---|
33
口口口口 |①---|
口口③口 |②---|
口④口② |③---|
口①①口 |④---|
34
口①①口 |①---|
口③口口 |②---|
②口④口 |③---|
口口口口 |④---|
35
口口口口 |①---|
②口口④ |②---|
口①③口 |③---|
口口口口 |④---|
36
口口口口 |①---|
口②④口 |②---|
①口口③ |③---|
口口口口 |④---|
37
口口口口 |①---|
口③口口 |②---|
②口④口 |③---|
口①①口 |④---|
38
口①①口 |①---|
口口③口 |②---|
口④口② |③---|
口口口口 |④---|
39
口④④口 |①---|
③口口③ |②---|
②口口② |③---|
口①①口 |④---|
40
⑧口口⑦ |①-②-|
⑥口口⑤ |③-④-|
④口口③ |⑤-⑥-|
②口口① |⑦-⑧-|
41
口口口口 |①--②|
口③①口 |----|
口④②口 |③--④|
口口口口 |----|
42
⑦口口⑧ |①-②-|
⑤口口⑥ |③-④-|
③口口④ |⑤-⑥-|
①口口② |⑦-⑧-|
43
口口口口 |①--②|
口①③口 |----|
口②④口 |③--④|
口口口口 |----|
44
⑧口口⑦ |①-②-|
⑥口口⑤ |③-④-|
④口口③ |⑤-⑥-|
②口口① |⑦-⑧-|
45
口口口口 |①--②|
口③①口 |----|
口④②口 |③--④|
口口口口 |----|
46
⑦口口⑧ |①-②-|
⑤口口⑥ |③-④-|
③口口④ |⑤-⑥-|
①口口② |⑦-⑧-|
47
口口口口 |①--②|
口①③口 |----|
口②④口 |③--④|
口口口口 |----|
48
①口口口 |①---|
②口口口 |②---|
③口口口 |③---|
口口口口 |----|
49
口口②口 |①---|
口③口口 |②-③-|
口口④口 |④---|
⑤①①⑤ |⑤---|
50
⑤①①⑤ |①---|
口④口口 |②-③-|
口口③口 |④---|
口②口口 |⑤---|
51
口口②口 |①---|
口③口口 |②-③-|
口口④口 |④---|
⑤①①⑤ |⑤---|
52
⑤①①⑤ |①---|
口④口口 |②-③-|
口口③口 |④---|
口②口口 |⑤---|
53
口口口口 |①---|
口口③口 |②-③-|
口④口② |④---|
①⑤⑤① |⑤---|
54
①⑤⑤① |①---|
口③口口 |②-③-|
②口④口 |④---|
口口口口 |⑤---|
55
口口口口 |①---|
口口③口 |②-③-|
口④口② |④---|
①⑤⑤① |⑤---|
56
①⑤⑤① |①---|
口③口口 |②-③-|
②口④口 |④---|
口口口口 |⑤---|
57
口口口口 |①---|
口②②口 |----|
口口口口 |----|
口①①口 |②---|
58
④口口口 |①---|
③口口口 |②---|
②口口口 |③---|
①口口口 |④---|
59
口口口④ |①---|
口口口③ |②---|
口口口② |③---|
口口口① |④---|
60
口④口口 |①---|
③口口口 |②---|
口②口口 |③---|
①口口口 |④---|
61
口口④口 |①---|
口口口③ |②---|
口口②口 |③---|
口口口① |④---|
62
口口口口 |①---|
口口口口 |②---|
②口口④ |③---|
口①③口 |④---|
63
②口口④ |①---|
口①③口 |②---|
口口口口 |③---|
口口口口 |④---|
64
口口口口 |①---|
口③口① |②---|
④口②口 |③---|
口口口口 |④---|
65
口口口口 |①---|
①口③口 |②---|
口②口④ |③---|
口口口口 |④---|
66
①口口① |①---|
口②②口 |②---|
③口口③ |③---|
⑤④④⑤ |④-⑤-|

不確定度: 0

最終更新:2016年04月25日 03:42