Rock The Club
Expander

ADVANCED

Level: 9
BPM: 260
Notes: 626

實際BPM: 130
1
口口口口 |----|
口口口口 |----|
口口口口 |----|
口口口口 |----|
2
口⑦⑧口 |①---|
⑨③②⑩ |②③④⑤|
口⑤④口 |⑥-⑦⑧|
①口⑥① |-⑨-⑩|
3
口⑥⑦口 |----|
⑧②①⑨ |①②③④|
口④③口 |⑤-⑥⑦|
口口⑤口 |-⑧-⑨|
4
口口⑤口 |----|
口④③口 |①②③④|
⑧②①⑨ |⑤-⑥⑦|
口⑥⑦口 |-⑧-⑨|
5
口口⑤口 |----|
口④③口 |①②③④|
⑧②①⑨ |⑤-⑥⑦|
口⑥⑦口 |-⑧-⑨|
6
口口⑤口 |----|
⑦④③⑥ |①②③④|
⑨②①⑧ |⑤-⑥⑦|
口口口口 |-⑧-⑨|
7
口⑤口口 |----|
⑥③④⑦ |①②③④|
⑧①②⑨ |⑤-⑥⑦|
口口口口 |-⑧-⑨|
8
口口口口 |----|
⑦②①⑥ |①②③④|
⑨④③⑧ |⑤-⑥⑦|
口口⑤口 |-⑧-⑨|
9
口口口口 |----|
⑦①②⑥ |①②③④|
⑨③④⑧ |⑤-⑥⑦|
口⑤口口 |-⑧-⑨|
10
②口口① |①---|
口②①口 |②---|
口口③口 |③-④⑤|
口④⑤③ |----|
11
②口口① |--①-|
口②①口 |②---|
口口③口 |③-④⑤|
口④⑤③ |----|
12
②口口① |①---|
口②①口 |----|
口①②口 |②---|
①口口② |----|
13
②口口② |①---|
①口口① |----|
①口口① |----|
口口口口 |②---|
14
口③口口 |①--②|
口口口口 |③---|
口①①口
口口口②

口口口口
⑦⑥口口
口口⑤④ |④-⑤-|
口口口口 |⑥-⑦-|
15
口④③① |①--②|
口口口口 |③-④-|
口口口口
②口口口

口口口口
口口口口
口口⑥⑤ |⑤-⑥-|
⑧⑦口口 |⑦-⑧-|
16
③④①② |①-②-|
口口口口 |③-④-|
口口口口
口口口口

口口⑦口
口口口口
口⑧口口 |⑤--⑥|
⑥⑤⑤口 |⑦-⑧-|
17
①③⑦① |①--②|
口⑧⑧口 |③-④-|
口口⑤口 |⑤--⑥|
⑥④④② |⑦-⑧-|
18
②③口口 |①-②-|
口口口口 |③---|
口口口口
口①①口

⑨口口⑧
⑤⑦⑥④
口口口口 |④⑤⑥⑦|
口口口口 |⑧-⑨-|
19
口口③口 |①--②|
口④④口 |③-④-|
口口口口
②①①口

口口口口
口口口口
口口⑥⑤ |⑤-⑥-|
⑧⑦口口 |⑦-⑧-|
20
④口①⑧ |①--②|
口口③⑦ |③-④-|
口②口⑥ |⑤-⑥-|
口口口⑤ |⑦-⑧-|
21
口③口⑤ |①--②|
口口口⑥ |③-④-|
口④④⑦ |⑤-⑥-|
口口①② |⑦---|
22
④③口口 |①--②|
口口口口 |③-④-|
口口口口
口①①②

口口⑥口
口口口⑤
⑧口口口 |⑤-⑥-|
口⑦口口 |⑦-⑧-|
23
口口③口 |①--②|
口④④口 |③-④-|
口①①口
②口口口

口口口口
口口口口
⑤⑥口口 |⑤-⑥-|
口口⑦⑧ |⑦-⑧-|
24
②①③④ |①-②-|
口口口口 |③-④-|
口口口口
口口口口

口⑦口口
口口⑧口
口口口口 |⑤--⑥|
口⑤⑤⑥ |⑦-⑧-|
25
⑧⑦③口 |①--②|
口口口口 |③-④-|
口①口⑤ |⑤--⑥|
②④④⑥ |⑦-⑧-|
26
口口口③ |①-②-|
口口口口 |③---|
口口②口
①口口口

口⑥口⑦
口口口口
④口口④ |④--⑤|
口口口⑤ |⑥-⑦-|
27
④口③口 |①--②|
口口口口 |③-④-|
口口口口
②①①口

口口口口
口口口口
⑤⑥口口 |⑤-⑥-|
口口⑦⑧ |⑦-⑧-|
28
①③口④ |①--②|
口口口口 |③-④-|
口口②口
口口口口

⑧口⑦口
口口口口
口口口口 |⑤--⑥|
⑥⑤⑤口 |⑦-⑧-|
29
④口③③ |①-②-|
⑤口口口 |--③-|
⑥口①口 |④-⑤-|
口口②口 |⑥---|
30
⑩⑧⑦⑨ |①-②-③-|
口⑥⑤口 |④-⑤-⑥-|
口④③口 |⑦-⑧-⑨-|
口②①口 |⑩---|
31
口⑤口⑥ |①-②-|
⑤①①⑦ |③-④-|
④口口口 |--⑤-|
③口口② |⑥-⑦-|
32
②口口口 |①-②-|
口口口口 |③-④⑤|
口口口①
口④⑤③

⑧口口⑧
口口⑦口
口⑥口口 |⑥-⑦-|
⑨口口⑨ |⑧-⑨-|
33
口口口口 |①-②-|
②⑥⑤① |③④⑤⑥|
口④③口
口口口口

口口⑦口
⑩口口⑨
口口口口 |⑦-⑧-|
⑧口口⑧ |⑨-⑩-|
34
⑦③③⑥ |①-②-|
口②①口 |③-④⑤|
口⑧⑧口 |⑥-⑦-|
⑨⑤④⑨ |⑧-⑨-|
35
口口口口 |①-②-|
②口口① |③-④-|
口④口口
口口③口

口⑥口口
口口⑤⑦
口口口⑧ |⑤-⑥-|
口口口口 |⑦-⑧-|
36
①口口② |①-②-|
③口口口 |③-④⑤|
口口口口
口⑤④口

⑧口口⑧
口⑦口口
口口⑥口 |⑥-⑦-|
口口口口 |⑧---|
37
口口口口 |①-②-|
口口口② |③-④-|
口口④口
口口③①

⑦口口⑧
⑨口⑤⑩
口口口口 |⑤-⑥-|
⑥口口⑥ |⑦⑧⑨⑩|
38
口③③口 |①-②-|
口口②口 |③-④⑤|
①口口口
口④⑤口

⑥口口⑦
口口口口
⑧口口⑨ |⑥-⑦-|
⑧口口⑨ |⑧-⑨-|
39
口①口口 |①---|
口②口口 |②--③|
口④口③ |④-⑤-|
⑤口⑥口 |⑥---|
40
②⑩⑨① |①-②③-④|
④⑫③⑪ |⑤-⑥⑦-⑧|
⑥⑭⑬⑤ |⑨-⑩⑪-⑫|
⑧⑯⑦⑮ |⑬-⑭⑮-⑯|
41
②③③① |①-②--③|
口口口口 |----|
口口口口 |④-⑤--⑥|
⑤⑥⑥④ |----|
42
①⑨⑩② |①-②③-④|
⑪③⑫④ |⑤-⑥⑦-⑧|
⑤⑬⑭⑥ |⑨-⑩⑪-⑫|
⑮⑦⑯⑧ |⑬-⑭⑮-⑯|
43
①③③② |①-②--③|
口口口口 |----|
口口口口 |④-⑤--⑥|
④⑥⑥⑤ |----|
44
②⑩⑨① |①-②③-④|
④⑫③⑪ |⑤-⑥⑦-⑧|
⑥⑭⑬⑤ |⑨-⑩⑪-⑫|
⑧⑯⑦⑮ |⑬-⑭⑮-⑯|
45
②⑥⑥① |①-②--③|
口口口口 |----|
③口口③ |④-⑤--⑥|
④口口⑤ |----|
46
①⑨⑩② |①-②③-④|
⑪③⑫④ |⑤-⑥⑦-⑧|
⑤⑬⑭⑥ |⑨-⑩⑪-⑫|
⑮⑦⑯⑧ |⑬-⑭⑮-⑯|
47
①⑥⑥② |①-②--③|
口口口口 |----|
③口口③ |④-⑤--⑥|
④口口⑤ |----|
48
口⑤口⑦ |①----②|
口④口⑦ |③-④-|
⑥③②口 |⑤-⑥-|
⑥①口口 |⑦---|
49
①⑨口⑦ |①-②-|
⑧口口⑩ |③-④-|
④⑥口口 |⑤-⑥-|
③⑤口② |⑦-⑧⑨-⑩|
50
口口①④ |①-②-|
口⑤③口 |③--④-⑤|
口口口口
口口②口

口⑧⑧口
口口口口
⑨口口⑨ |⑥-⑦-|
⑦口口⑥ |⑧-⑨-|
51
②口口① |①-②-|
口口口口 |③④⑤⑥|
口⑥⑤口
口④③口

口口⑩⑨
口口⑦口
口口口口 |⑦-⑧-|
⑧口口⑧ |⑨-⑩-|
52
口①口口 |①-②-|
口口口② |③--④-⑤|
口⑤口口
③口口④

⑦口口⑥
⑧口口⑧
口口口口 |⑥-⑦-|
口⑨⑨口 |⑧-⑨-|
53
口口口口 |①-②-|
口口④口 |③-④-|
口口③口
②口口①

口⑥⑤口
口口口口
口口口口 |⑤-⑥-|
⑦口⑧口 |⑦-⑧-|
54
①口口② |①-②-|
口⑤④口 |③--④-⑤|
③口口口
口口口口

⑧口口⑧
口口口口
口口口⑥ |⑥-⑦-|
⑨⑦⑦⑨ |⑧-⑨-|
55
口口口口 |①-②-|
②口口① |③④⑤⑥|
口⑥⑤口
口④③口

⑨口⑪口
⑫口⑦⑩
口口口口 |⑦-⑧-|
⑧口口⑧ |⑨-⑩⑪-⑫|
56
⑦①口⑧ |①-②-|
口⑨⑨口 |③--④-⑤|
口口②口 |⑥-⑦-|
③⑤⑥④ |⑧-⑨-|
57
口口口口 |----|
口口口口 |----|
口①①口 |----|
口口口口 |①---|
58
①口②① |①-②-|
口口口口 |③-④-|
口口口口
口④口③

⑧⑥口口
口口口口
口口⑦口 |⑤-⑥⑦|
口口⑤⑨ |-⑧⑨-|
59
口④口③ |①-②-|
⑧⑦⑥⑤ |③-④-|
口口口口 |⑤-⑥-|
①②口口 |⑦-⑧-|
60
①②口① |①-②-|
口口口④ |③-④-|
口口口口
③口口口

口口口口
⑦⑤口口
口口口口 |⑤-⑥-|
⑧⑥口口 |⑦-⑧-|
61
口⑤口④ |①-②-|
口口口③ |③-④⑤|
口口口②
口口口①

口口口口
口口⑥口
⑧口口⑧ |⑥-⑦-|
口⑦口口 |⑧---|
62
①②口① |①-②-|
口口口口 |③-④-|
口口口口
③口④口

口⑦口⑧
口口口⑥
⑤口口口 |⑤--⑥-⑦|
⑨口口口 |--⑧⑨--|
63
③口④口 |①-②-|
⑤⑦⑥口 |③-④-|
口口口口 |⑤⑥⑦-|
⑨⑧②① |⑧-⑨-|
64
①口②① |①-②-|
④口口口 |③-④-|
口口口口
口口口③

口口口口
口⑤口⑦
口口口口 |⑤-⑥-|
口口⑥⑧ |⑦-⑧-|
65
④口⑤口 |①-②-|
③口口口 |③-④⑤|
②口口口
①口口口

口口口口
口⑨⑨口
⑧口口⑧ |⑥-⑦-|
口⑥⑦口 |⑧-⑨-|
66
①口②① |①---|
③口口口 |②③④-|
口口④口
口口口口

口口⑨⑨
口⑤⑨⑨
口⑥口口 |⑤-⑥-|
口⑦⑧口 |⑦--⑧-⑨|

不確定度: 0

最終更新:2016年04月25日 03:41