MURASAKI
蒼井翔太

BASIC

Level: 2
BPM: 145
Notes: 164

1
口口口口 |----|
口口口口 |----|
口口口口 |----|
口口口口 |----|
2
口口口口 |①---|
口口口口 |----|
①口口口 |----|
口口口口 |----|
3
口口口口 |①---|
口口口口 |----|
口①口口 |----|
口口口口 |----|
4
口口口口 |①---|
口口口口 |----|
口口①口 |----|
口口口口 |----|
5
口口口口 |①---|
口口口口 |----|
口口口① |----|
口口口口 |----|
6
口口口口 |①---|
口口口① |----|
口口口口 |----|
口口口口 |----|
7
口口口口 |①---|
口口①口 |----|
口口口口 |----|
口口口口 |----|
8
口口口口 |①---|
口①口口 |----|
口口口口 |----|
口口口口 |----|
9
口口口口 |①---|
①口口口 |----|
口口口口 |----|
口口口口 |----|
10
口①口口 |①---|
口②口口 |②---|
口③口口 |③---|
口④口口 |④---|
11
口口④口 |①---|
口口③口 |②---|
口口②口 |③---|
口口①口 |④---|
12
①口口① |①---|
口口口口 |----|
口口口口 |----|
口口口口 |----|
13
口口口口 |----|
口口口口 |----|
口口口口 |----|
口口口口 |----|
14
口①口口 |①---|
口②口口 |②---|
口③口口 |③---|
口④口口 |④---|
15
口口④口 |①---|
口口③口 |②---|
口口②口 |③---|
口口①口 |④---|
16
①口口① |①---|
口口口口 |----|
口口口口 |----|
口口口口 |----|
17
口口口口 |----|
口口口口 |----|
口口口口 |----|
口口口口 |----|
18
口口口口 |①---|
口①①口 |----|
口口口口 |----|
口口口口 |----|
19
口口口口 |①---|
口口口口 |----|
口①①口 |----|
口口口口 |----|
20
口口口口 |①---|
口口口① |----|
口口口口 |----|
口口口口 |----|
21
口口口口 |①---|
①口口口 |----|
口口口口 |----|
口口口口 |----|
22
口口口口 |①---|
口①①口 |----|
口口口口 |----|
口口口口 |----|
23
口口口口 |①---|
口口口口 |----|
口①①口 |----|
口口口口 |----|
24
口口口口 |①---|
口口口① |----|
口口口口 |----|
口口口口 |----|
25
口口口口 |①---|
①口口口 |----|
口口口口 |----|
口口口口 |----|
26
口口口口 |①---|
口口②口 |----|
口口①口 |②---|
口口口口 |----|
27
口口①口 |①---|
口口口口 |----|
口口口口 |----|
口口口口 |----|
28
口口口口 |①---|
口②口口 |----|
口①口口 |②---|
口口口口 |----|
29
口①口口 |①---|
口口口口 |----|
口口口口 |----|
口口口口 |----|
30
口②①口 |①---|
口口口口 |----|
口口口口 |②---|
口口口口 |----|
31
口口口口 |①---|
口②①口 |----|
口口口口 |②---|
口口口口 |----|
32
口口口口 |①---|
口口口口 |----|
口②①口 |②---|
口口口口 |----|
33
口口口口 |①---|
①口口① |----|
口口口口 |----|
口口口口 |----|
34
①口口① |①---|
口口口口 |----|
口口口口 |----|
口口口口 |----|
35
口①①口 |①---|
口口②口 |----|
口②口口 |----|
口口口口 |--②-|
36
口口口口 |----|
口①口口 |----|
口口①口 |①---|
口口口口 |----|
37
口口口口 |①---|
④③②① |②---|
口口口口 |③---|
口口口口 |④---|
38
①②③④ |①---|
口口口口 |②---|
口口口口 |③---|
口口口口 |④---|
39
口口口口 |①---|
④③②① |②---|
口口口口 |③---|
口口口口 |④---|
40
口口口口 |①---|
口口②口 |----|
口口①口 |②---|
口口口口 |----|
41
口口口口 |①---|
口②口口 |----|
口①口口 |②---|
口口口口 |----|
42
口口口口 |①---|
口口②口 |----|
口口①口 |②---|
口口口口 |----|
43
①口口① |①---|
口口②口 |----|
口②口口 |----|
口口口口 |--②-|
44
口口口口 |----|
口①口口 |----|
口口①口 |①---|
口口口口 |----|
45
口口口口 |①---|
④③②① |②---|
口口口口 |③---|
口口口口 |④---|
46
①②③④ |①---|
口口口口 |②---|
口口口口 |③---|
口口口口 |④---|
47
口口口口 |①---|
④③②① |②---|
口口口口 |③---|
口口口口 |④---|
48
口口口口 |①---|
口口②口 |----|
口口①口 |②---|
口口口口 |----|
49
①口口① |①---|
口口口口 |----|
口口口口 |----|
口口口口 |----|
50
口口口口 |----|
口口口口 |----|
口口口口 |----|
口口口口 |----|
51
口口口口 |①---|
口口口口 |②---|
④③②① |③---|
口口口口 |④---|
52
口口口口 |①---|
④③②① |②---|
口口口口 |③---|
口口口口 |④---|
53
口口口口 |①---|
口口口口 |②---|
口口口口 |③---|
④③②① |④---|
54
口口口口 |①---|
口口口口 |②---|
④③②① |③---|
口口口口 |④---|
55
口口口口 |①---|
口②①口 |②---|
口④③口 |③---|
口口口口 |④---|
56
口口口口 |①---|
②口口① |②---|
④口口③ |③---|
口口口口 |④---|
57
口口口口 |①---|
口口口口 |②---|
口④③口 |③---|
口②①口 |④---|
58
口④③口 |①---|
口②①口 |②---|
口口口口 |③---|
口口口口 |④---|
59
口口口① |①---|
口口口② |②---|
口口口③ |③---|
口口口④ |④---|
60
口口④口 |①---|
口口③口 |②---|
口口②口 |③---|
口口①口 |④---|
61
①口口① |①---|
口口口口 |----|
口口口口 |----|
口口口口 |----|
62
口口口口 |----|
口口口口 |----|
口口口口 |----|
口口口口 |----|
63
①口口口 |①---|
②口口口 |②---|
③口口口 |③---|
④口口口 |④---|
64
口④口口 |①---|
口③口口 |②---|
口②口口 |③---|
口①口口 |④---|
65
①口口① |①---|
口口口口 |----|
口口口口 |----|
口口口口 |----|
66
口口口口 |----|
口口口口 |----|
口口口口 |----|
口口口口 |----|
67
口口口口 |①---|
口②①口 |----|
口①②口 |②---|
口口口口 |----|
68
口口口口 |①---|
①③③① |----|
②口口② |②---|
口口口口 |--③-|

不確定度: 0

最終更新:2015年10月17日 01:34