MURASAKI
蒼井翔太

ADVANCED

Level: 5
BPM: 145
Notes: 340

1
口口口口 |----|
口口口口 |----|
口口口口 |----|
口口口口 |----|
2
①①②口 |①---|
口口③口 |----|
口口口口 |②---|
口口口口 |③---|
3
口口口口 |①---|
①①口② |----|
口口口③ |②---|
口口口口 |③---|
4
①①②口 |①---|
口口③口 |----|
口口口口 |②---|
口口口口 |③---|
5
口口口口 |①---|
①①口② |----|
口口口③ |②---|
口口口口 |③---|
6
口②①① |①---|
口③口口 |----|
口口口口 |②---|
口口口口 |③---|
7
口口口口 |①---|
②口①① |----|
③口口口 |②---|
口口口口 |③---|
8
口②①① |①---|
口③口口 |----|
口口口口 |②---|
口口口口 |③---|
9
口口口口 |①---|
口口①① |----|
口口口口
口口口口

口口口口
口④③口
口②②口 |②---|
口口口口 |③-④-|
10
①口口① |①---|
口口②口 |----|
口③口口 |--②-|
口口④口 |③-④-|
11
口口⑤④ |①---|
口口口③ |②-③-|
口口口② |④---|
口①口口 |⑤---|
12
口①口口 |①---|
口口口口 |----|
口口口口 |----|
口口口口 |----|
13
口口口口 |----|
口②①口 |----|
口口口口 |----|
口口口口 |①-②-|
14
①口口① |①---|
口口②口 |----|
口③口口 |--②-|
口口④口 |③-④-|
15
口口⑤④ |①---|
口口口③ |②-③-|
口口口② |④---|
口①口口 |⑤---|
16
口①口口 |①---|
口口口口 |----|
口口口口 |----|
口口口口 |----|
17
①口①口 |①---|
②口②口 |②---|
③口③口 |③---|
口口口口 |----|
18
口⑥口⑦ |--①-|
口口⑤口 |②-③-|
口④③口 |④-⑤⑥|
口②①口 |--⑦-|
19
口⑧口口 |①---|
口口⑦① |②-③-|
⑥口口口 |④-⑤-|
②③④⑤ |⑥-⑦⑧|
20
口口③口 |--①-|
①②④口 |②---|
口口⑤口 |③--④|
口口口口 |--⑤-|
21
口口③口 |--①-|
①②④口 |②---|
口口口口 |③--④|
口口口口 |----|
22
⑦口⑥口 |--①-|
口⑤口口 |②-③-|
口③④口 |④-⑤⑥|
口①②口 |--⑦-|
23
口口⑤① |①-②-|
②④口③ |③-④⑤|
口口⑨口 |--⑥-|
口⑧⑦⑥ |⑦-⑧⑨|
24
口③口口 |--①-|
口④②① |②---|
口⑤口口 |③--④|
口口口口 |--⑤-|
25
口③口口 |--①-|
口④②① |②---|
口口口口 |③--④|
口口口口 |----|
26
口口口口 |①--②|
口⑥③口 |--③-|
口⑤②口 |④--⑤|
口④①口 |--⑥-|
27
④④口口 |①--②|
⑤⑤口③ |--③-|
口口口② |④---|
口口口① |⑤---|
28
④口口口 |--①-|
⑤口①口 |②-③-|
⑥②③口 |④--⑤|
口口口口 |--⑥-|
29
口口口口 |①---|
口口口口 |----|
口口①口 |----|
口口口口 |----|
30
口口口口 |①--②|
口⑥③口 |--③-|
口⑤②口 |④--⑤|
口④①口 |--⑥-|
31
④④口口 |①--②|
⑤⑤口③ |--③-|
口口口② |④---|
口口口① |⑤---|
32
口口口口 |--①-|
口口①口 |②-③-|
口②③口
口口口口

⑥⑧口⑤
口④⑦口
口口口口 |④-⑤-|
口口口口 |⑥-⑦⑧|
33
口口口口 |----|
口口口口 |----|
口口口口 |----|
口口口口 |----|
34
④①①④ |①--②|
⑤②②⑤ |--③-|
⑥③③⑥ |④--⑤|
口口口口 |--⑥-|
35
⑤⑥⑥⑤ |①-②-|
口②①口 |③-④-|
口④③口 |⑤---|
口口口口 |--⑥-|
36
③口口③ |--①-|
口④④口 |②-③-|
口②①口 |---④|
口口⑤口 |--⑤-|
37
口口口口 |①-②-|
口⑥⑦口 |③-④-|
口③①⑤ |⑤-⑥⑦|
口②口④ |----|
38
口口口口 |--①-|
口口③口 |②-③-|
口②口口
口口①口

④④口口
⑤⑤口口
⑥⑥口口 |④--⑤|
口口口口 |--⑥-|
39
口④⑤口 |①-②-|
口口③口 |③-④⑤|
口口②口 |----|
口口①口 |----|
40
口口口口 |①-②-|
⑥口口④ |③-④⑤|
①②③⑤ |----|
口口口口 |--⑥-|
41
口口口口 |--①-|
口口口③ |②-③④|
口①②④ |----|
口⑤⑤口 |--⑤-|
42
⑧口口⑧ |--①-|
②⑦⑦① |②-③-|
④口口③ |④-⑤-|
口⑥⑤口 |⑥-⑦⑧|
43
口口口口 |----|
口②②口 |----|
口口口口 |--①-|
口①①口 |--②-|
44
口⑥口口 |--①-|
②口⑤① |②-③-|
④口口③ |④-⑤⑥|
口口⑦口 |--⑦-|
45
口口口口 |①-②-|
口⑥⑦口 |③-④-|
口③①⑤ |⑤-⑥⑦|
口②口④ |----|
46
④④口口 |①--②|
⑤⑤③③ |--③-|
⑥⑥②② |④--⑤|
口口①① |--⑥-|
47
口③④口 |①---|
口口①① |②-③④|
口口②口 |----|
口口口口 |----|
48
口口口口 |①--②|
口③⑥口 |--③-|
口②⑤口 |④--⑤|
口①④口 |--⑥-|
49
①口口① |①---|
口口口口 |----|
口口口口 |----|
口口口口 |----|
50
④口口口 |----|
口②③口 |----|
口口口口 |①-②③|
口口①口 |--④-|
51
口口口① |①-②③|
口口口口 |----|
口②③口 |----|
口口口口 |----|
52
口口口口 |----|
口口口口 |----|
口口口口 |----|
口口口口 |----|
53
口口口口 |①---|
口口口口 |②---|
口口口口 |③---|
①②③④ |④---|
54
口口口口 |①---|
口口口口 |②---|
④③②① |③---|
口口口口 |④---|
55
②口口① |①---|
②口口① |②---|
口口口口
口口口口

⑤口口⑤
口口④口
口口③口 |③-④-|
口口口口 |--⑤-|
56
口①①口 |--①-|
口口口口 |----|
口口口口 |----|
口口口口 |----|
57
口口口口 |①---|
口口口口 |②---|
口口口口 |③---|
①②③④ |④---|
58
口口口口 |①---|
口⑤④口 |②---|
口③②① |③---|
口口口口 |④-⑤-|
59
①口口① |①---|
口口②口 |----|
口③口口 |--②-|
口口④口 |③-④-|
60
口口⑤④ |①---|
口口口③ |②-③-|
口口口② |④---|
口①口口 |⑤---|
61
口①口口 |①---|
口口口口 |----|
口口口口 |----|
口口口口 |----|
62
口口口口 |----|
口②①口 |----|
口口口口 |----|
口口口口 |①-②-|
63
①口口① |①---|
口口②口 |----|
口③口口 |--②-|
口口④口 |③-④-|
64
口口⑤④ |①---|
口口口③ |②-③-|
口口口② |④---|
口①口口 |⑤---|
65
口①口口 |①---|
口口口口 |----|
口口口口 |----|
口口口口 |----|
66
①口①口 |①---|
②口②口 |②---|
③口③口 |③---|
口口口口 |----|
67
①①口口 |①---|
口口②② |----|
口口口口 |②---|
口口口口 |----|
68
口⑤④口 |①---|
口③口口 |②---|
口口②口 |③---|
口①口口 |④-⑤-|

不確定度: 0

最終更新:2015年10月17日 01:33