MURASAKI
蒼井翔太

EXTREME

Level: 8
BPM: 145
Notes: 650

1
口口口口 |----|
口口口口 |----|
口口口口 |----|
口口口口 |----|
2
①①口口 |①---|
口③②口 |②-③-|
口⑦⑥⑤ |④-⑤-|
口⑦⑥④ |⑥-⑦-|
3
口④③② |①-②-|
口④③① |③-④-|
口口口口
口口口口

口口口口
⑩口口⑦
⑥口口⑨ |⑤⑥⑦-|
⑧口口⑤ |⑧⑨⑩-|
4
①①口口 |①---|
口③②口 |②-③-|
口⑦⑥⑤ |④-⑤-|
口⑦⑥④ |⑥-⑦-|
5
口④③② |①-②-|
口④③① |③-④-|
口口口口
口口口口

口口口口
⑩口口⑦
⑥口口⑨ |⑤⑥⑦-|
⑧口口⑤ |⑧⑨⑩-|
6
①①口口 |①---|
口③②口 |②-③-|
口⑦⑥⑤ |④-⑤-|
口⑦⑥④ |⑥-⑦-|
7
口④③② |①-②-|
口④③① |③-④-|
口口口口
口口口口

口口口口
⑩口口⑦
⑥口口⑨ |⑤⑥⑦-|
⑧口口⑤ |⑧⑨⑩-|
8
①①口口 |①---|
口③②口 |②-③-|
口⑦⑥⑤ |④-⑤-|
口⑦⑥④ |⑥-⑦-|
9
口④③② |①-②-|
口④③① |③-④-|
⑥⑤⑤⑥ |⑤---|
口⑦⑦口 |⑥-⑦-|
10
①①①① |①---|
口②⑥④ |②---|
口③④⑥ |③-④-|
口⑤口口 |⑤-⑥-|
11
⑤口口① |①---|
④口口③ |②-③-|
②口③④ |④---|
①口口⑤ |⑤---|
12
口口口口 |①---|
口①①② |--②-|
口口口口
口①①口

口口口口
③④口口
口口⑤⑥ |③-④-|
口口口口 |⑤-⑥-|
13
②④口口 |①-②-|
口口口口 |③-④-|
①③口口
口口口口

口口口口
口⑤⑤口
口⑦⑥口 |⑤---|
口口口口 |⑥-⑦-|
14
①①①① |①---|
口②⑥④ |②---|
口③④⑥ |③-④-|
口⑤口口 |⑤-⑥-|
15
⑤口口① |①---|
④口口③ |②-③-|
②口③④ |④---|
①口口⑤ |⑤---|
16
口口口口 |①---|
口①①② |--②-|
口口口口
口①①口

口口口口
③④口口
口口⑤⑥ |③-④-|
口口口口 |⑤-⑥-|
17
②④口口 |①-②-|
口⑤⑤口 |③-④-|
①③口口 |⑤---|
口口口口 |----|
18
⑤口口口 |--①-|
⑥口⑦口 |②-③-|
④③②① |④-⑤⑥|
口口口口 |--⑦-|
19
口①口⑦ |①-②-|
⑤⑧⑨口 |③-④-|
口⑥④② |⑤-⑥-|
③口口口 |⑦-⑧⑨|
20
③③口口 |--①-|
口口④④ |②---|
⑤⑤口口 |③--④|
②①①② |--⑤-|
21
口口③③ |--①-|
④④口口 |②---|
口口口口 |③--④|
②①①② |----|
22
口口口⑤ |--①-|
⑦⑧口⑥ |②-③-|
①②③④ |④-⑤⑥|
口口口口 |--⑦⑧|
23
口②口口 |①-②-|
口口①口 |③-④⑤|
口口③口
口④⑤口

口⑨⑧口
⑦口口口
⑥口口口 |--⑥-|
口口口口 |⑦-⑧⑨|
24
口口③③ |--①-|
④④口口 |②---|
口口⑤⑤ |③--④|
②①①② |--⑤-|
25
③③口口 |--①-|
口口④④ |②---|
口口口口 |③--④|
②①①② |----|
26
口④③口 |①--②|
④②⑤③ |--③-|
①⑤②⑥ |④--⑤|
口①⑥口 |--⑥-|
27
①口①口 |①--②|
口②口② |--③-|
③口③口
口口口口

口⑤⑤口
口口口口
口口口口 |④---|
口④④口 |⑤---|
28
口口口口 |--①-|
③⑥口① |②-③-|
口④②⑤ |④--⑤|
口口口口 |--⑥-|
29
口口口口 |①---|
口口①口 |----|
口口口口 |----|
口口口口 |----|
30
口③④口 |①--②|
③⑤②④ |--③-|
⑥②⑤① |④--⑤|
口⑥①口 |--⑥-|
31
口①口① |①--②|
②口②口 |--③-|
口③口③
口口口口

口⑤⑤口
口口口口
口口口口 |④---|
口④④口 |⑤---|
32
⑦口⑨⑧ |①-②-|
⑥③⑤口 |③-④-|
口②④口 |⑤-⑥-|
①口口① |⑦-⑧⑨|
33
口口口口 |--①②|
⑨⑩⑪⑫ |③④⑤⑥|
⑤⑥⑦⑧ |⑦⑧⑨⑩|
①②③④ |⑪⑫--|
34
①②③口 |①--②|
口⑥⑤④ |--③-|
①②③口 |④--⑤|
口⑥⑤④ |--⑥-|
35
④口口② |①-②-|
②口口④ |③-④-|
③口口①
①口口③

口⑥口口
⑥⑤⑤口
口⑤⑤⑥ |⑤---|
口口⑥口 |--⑥-|
36
口④③⑤ |--①-|
④①口③ |②-③-|
③口②④ |---④|
口③④口 |--⑤-|
37
②⑦⑥口 |①-②-|
口口口口 |③-④-|
⑦⑤④⑥ |⑤-⑥⑦|
③口口① |----|
38
口口口① |--①-|
口口①口 |②-③-|
口③②口
③口口②

④⑤⑤⑥
口④⑥口
口口口口 |④--⑤|
口口口口 |--⑥-|
39
口口口口 |①-②-|
④口口② |③-④⑤|
⑤口口口
③口口①

口⑧⑦⑥
口⑪⑩⑨
口口口口 |⑥⑦⑧-|
口口口口 |⑨⑩⑪-|
40
②④口⑤ |①-②-|
口口⑤口 |③-④⑤|
口口口④
①③口口

口口口口
口口口口
口口口口 |----|
⑥口口⑥ |--⑥-|
41
④口③① |--①-|
口④口口 |②-③④|
③口口口
口口②口

口口口口
口口口口
口口口⑤ |----|
口口⑤口 |--⑤-|
42
③口⑤⑧ |--①-|
口②⑦⑤ |②-③-|
⑥⑦①口 |④-⑤-|
⑧⑥口④ |⑥-⑦⑧|
43
④⑩③⑨ |--①②|
⑩②⑨⑤ |③④⑤⑥|
⑥⑪①⑪ |⑦⑧⑨-|
⑪⑧⑪⑦ |⑩-⑪-|
44
③口④⑦ |--①-|
口①⑤④ |②-③-|
④⑥②口 |④-⑤⑥|
口④口口 |--⑦-|
45
②⑦⑥口 |①-②-|
口口口口 |③-④-|
⑦⑤④⑥ |⑤-⑥⑦|
③口口① |----|
46
②⑥③⑤ |①--②|
③⑤②⑥ |--③-|
口口口口 |④--⑤|
①①④④ |--⑥-|
47
口口口口 |①---|
口口④口 |②-③④|
①①①①
③②②③

口口口口
口⑤口口
⑦口口⑥ |⑤-⑥-|
口口⑧口 |⑦-⑧-|
48
⑤④①② |①--②|
④⑤②① |--③-|
口口口口 |④--⑤|
⑥③⑥③ |--⑥-|
49
口口口口 |①---|
口口口口 |----|
①①①① |----|
口口口口 |----|
50
口口口口 |----|
口④②口 |----|
口口③口 |①-②③|
口①口口 |--④-|
51
②口口① |①-②③|
③口口口 |----|
口口口口
口口口口

口⑤口⑤
口④口④
⑥口⑥口 |④-⑤-|
口口口口 |--⑥-|
52
①口口口 |①-②-|
口③口口 |③-④-|
口口口②
口口④口

口⑦口口
口口⑥口
⑤口口⑧ |⑤-⑥-|
口口口口 |⑦-⑧-|
53
口⑤口口 |①-②-|
③口⑥口 |③-④-|
⑦口②口 |⑤-⑥-|
口①⑧④ |⑦-⑧-|
54
口口口④ |①-②-|
口①口口 |③-④-|
口口口②
③口口口

⑦口口口
口口口口
口⑤口⑧ |⑤-⑥-|
口口⑥口 |⑦-⑧-|
55
口②口② |①---|
④①④① |②---|
口口口口 |③-④-|
③⑤③⑤ |--⑤-|
56
⑤口口② |①-②-|
口①口⑧ |③-④-|
口⑦④口 |⑤-⑥-|
③口⑥口 |⑦-⑧-|
57
口①口⑧ |①-②-|
口⑤②口 |③-④-|
③⑦口口 |⑤-⑥-|
口口⑥④ |⑦-⑧-|
58
①口口口 |①-②-|
口口②⑥ |③-④-|
⑦⑤口⑦ |⑤-⑥-|
③⑧⑧④ |⑦-⑧-|
59
①①①① |①---|
口②⑥④ |②---|
口③④⑥ |③-④-|
口⑤口口 |⑤-⑥-|
60
⑤口口① |①---|
④口口③ |②-③-|
②口③④ |④---|
①口口⑤ |⑤---|
61
口口口口 |①---|
口①①② |--②-|
口口口口
口①①口

口口口口
③④口口
口口⑤⑥ |③-④-|
口口口口 |⑤-⑥-|
62
②④口口 |①-②-|
口口口口 |③-④-|
①③口口
口口口口

口口口口
口⑤⑤口
口⑦⑥口 |⑤---|
口口口口 |⑥-⑦-|
63
①①①① |①---|
口②⑥④ |②---|
口③④⑥ |③-④-|
口⑤口口 |⑤-⑥-|
64
⑤口口① |①---|
④口口③ |②-③-|
②口③④ |④---|
①口口⑤ |⑤---|
65
口口口口 |①---|
口①①② |--②-|
口口口口
口①①口

口口口口
③④口口
口口⑤⑥ |③-④-|
口口口口 |⑤-⑥-|
66
②④口口 |①-②-|
口⑤⑤口 |③-④-|
①③口口 |⑤---|
口口口口 |----|
67
①⑨⑬⑤ |①②③④|
②⑩⑭⑥ |⑤⑥⑦⑧|
③⑪⑮⑦ |⑨⑩⑪⑫|
④⑫⑯⑧ |⑬⑭⑮⑯|
68
⑥⑨⑨口 |①-②-|
⑦③口⑤ |③④-⑤|
①④口② |-⑥⑦-|
口⑧⑧口 |⑧-⑨-|

不確定度: 0

最終更新:2015年10月17日 01:32