日天悦扇紊舞
Akhuta

BASIC

Level: 4
BPM: 192
Notes: 255

1
口口口口 |----|
口口口口 |----|
口口口口 |----|
口口口口
2
口口口口 |①---|
口口口口 |----|
口口口口 |----|
口①①口
3
口口口口 |----|
口口口口 |----|
口口口口 |----|
口口口口
4
口口口口 |----|
口口口口 |----|
口口口口 |----|
口口口口
5
口口口口 |①---|
口口口口 |----|
口①①口 |----|
口口口口
6
口口口口 |----|
口口口口 |----|
口口口口 |----|
口口口口
7
口口口口 |----|
口口口口 |----|
口口口口 |----|
口口口口
8
口口口口 |①---|
口①①口 |----|
口口口口 |----|
口口口口
9
口口口口 |----|
口口口口 |----|
口口口口 |----|
口口口口
10
口口口口 |----|
口口口口 |----|
口口口口 |----|
口口口口
11
口①①口 |①---|
口口口口 |----|
口口口口 |----|
口口口口
12
口口口口 |----|
口口口口 |----|
口口口口 |----|
口口口口
13
口口口口 |----|
口口口口 |----|
口口口口 |----|
口口口口
14
口口口口 |----|
口口口口 |----|
口口口口 |----|
口口口口
15
口口口口 |①---|
口②①口 |----|
口口口口 |②---|
口口口口
16
口口口口 |----|
口口口口 |①---|
口口①口 |----|
口口口口
17
口口口口 |①---|
②口口② |----|
口①口口 |②---|
口口口口
18
口口口口 |①---|
口②①口 |----|
口口口口 |②---|
口口口口
19
口口口口 |----|
口口口口 |①---|
口口①口 |----|
口口口口
20
口口口口 |①---|
②口口② |----|
口①口口 |②---|
口口口口
21
口口①口 |①---|
口口口口 |----|
口口口口 |----|
口口口口
22
口口口口 |----|
口口口口 |----|
口口口口 |----|
口口口口
23
口口口口 |①---|
口①口口 |----|
口口口口 |----|
口口口口
24
口口口口 |----|
口口口口 |----|
口口口口 |----|
口口口口
25
口口口口 |①---|
口口口口 |----|
口口①口 |----|
口口口口
26
口口口口 |----|
口口口口 |----|
口口口口 |----|
口口口口
27
口口口口 |①---|
口口口口 |----|
口口口口 |----|
口①口口
28
口口口口 |①---|
①②③口 |--②-|
口口口口 |----|
口口口口 |③---|
29
口口口口 |--①-|
口口口① |----|
口②②口 |②---|
口口口口 |----|
30
口口①口 |①---|
口②口口 |--②-|
口口③口 |----|
口口口口 |③---|
31
口口口口 |--①-|
口口口口 |----|
②口口② |②---|
口①口口 |----|
32
口口口口 |①---|
口③②① |--②-|
口口口口 |----|
口口口口 |③---|
33
口口口口 |--①-|
①口口口 |----|
口②②口 |②---|
口口口口 |----|
34
口①口口 |①---|
口口②口 |--②-|
口③口口 |----|
口口口口 |③---|
35
口口口① |①---|
②口口口 |--②-|
口口口③ |----|
口口口口 |③---|
36
口口口口 |①---|
口①①口 |----|
口口口口 |----|
口口口口 |----|
37
口口口口 |----|
口口口口 |----|
口口口口 |----|
口口口口 |----|
38
口口口口 |①---|
②口口口 |----|
①口口口 |②---|
口口口口 |----|
39
口口口口 |①---|
口②口口 |----|
口①口口 |②---|
口口口口 |----|
40
口口口口 |①---|
口口②口 |----|
口口①口 |②---|
口口口口 |----|
41
口口口口 |①---|
口口口② |----|
口口口① |②---|
口口口口 |----|
42
口口口口 |①---|
口②口口 |----|
口①口口 |②---|
口口口口 |----|
43
口口口口 |①---|
口口②口 |----|
口口①口 |②---|
口口口口 |----|
44
①口口① |①---|
口②②口 |----|
口口口口 |②---|
口口口口 |----|
45
口口口口 |①---|
口口口口 |----|
①口口① |②---|
口②②口 |----|
46
口口口口 |①---|
②口口口 |----|
①口口口 |②---|
口口口口 |----|
47
口口口口 |①---|
口②口口 |----|
口①口口 |②---|
口口口口 |----|
48
口口口口 |①---|
口口②口 |----|
口口①口 |②---|
口口口口 |----|
49
口口口口 |①---|
口口口② |----|
口口口① |②---|
口口口口 |----|
50
口口口口 |①---|
口②口口 |----|
口①口口 |②---|
口口口口 |----|
51
口口口口 |①---|
口口②口 |----|
口口①口 |②---|
口口口口 |----|
52
①口口① |①---|
口②②口 |----|
口口口口 |②---|
口口口口 |----|
53
口口口口 |①---|
口口口口 |----|
①口口① |②---|
口②②口 |----|
54
口口口口 |①---|
口口②② |----|
口口①① |②---|
口口口口 |----|
55
口口口口 |①---|
②②口口 |----|
①①口口 |②---|
口口口口 |----|
56
口口口口 |①---|
口口②② |----|
口口①① |②---|
口口口口 |----|
57
口口口口 |①---|
②②口口 |----|
①①口口 |②---|
口口口口 |----|
58
口①口口 |①---|
口口②口 |②---|
口③口口 |③---|
口口④口 |④---|
59
口口④口 |①---|
口③口口 |②---|
口口②口 |③---|
口①口口 |④---|
60
①口口口 |①---|
口口口② |②---|
③口口口 |③---|
口口口④ |④---|
61
口口口④ |①---|
③口口口 |②---|
口口口② |③---|
①口口口 |④---|
62
口口口口 |①---|
口①口② |----|
口口口口 |②---|
口口口口 |----|
63
口口口口 |①---|
口口口口 |----|
口①口② |②---|
口口口口 |----|
64
口口口口 |①---|
①口②口 |----|
口口口口 |②---|
口口口口 |----|
65
口口口口 |①---|
口口口口 |----|
①口②口 |②---|
口口口口 |----|
66
口口口口 |①---|
口②口口 |----|
口口口口 |②---|
口①口口 |----|
67
口口口口 |①---|
口口②口 |----|
口口口口 |②---|
口口①口 |----|
68
口②口口 |①---|
口口口口 |----|
口①口口 |②---|
口口口口 |----|
69
口口②口 |①---|
口口口口 |----|
口口①口 |②---|
口口口口 |----|
70
①口口① |①---|
口②②口 |----|
口口口口 |②---|
口口口口 |----|
71
口口口口 |①---|
口口口口 |----|
①口口① |②---|
口②②口 |----|
72
口口口口 |①---|
口口口口 |②---|
①②③④ |③---|
口口口口 |④---|
73
口①口口 |①---|
口②口口 |②---|
口③口口 |③---|
口④口口 |④---|
74
④口口口 |①---|
口口口③ |②---|
②口口口 |③---|
口口口① |④---|
75
口①①口 |①---|
口②②口 |②---|
口③③口 |③---|
口口口口 |----|
76
②口口口 |①---|
口口口口 |----|
①口口口 |②---|
口口口口 |----|
77
口②口口 |①---|
口口口口 |----|
口①口口 |②---|
口口口口 |----|
78
口口①① |①---|
口口②② |--②-|
口口③③ |----|
口口口口 |③---|
79
口口口口 |--①-|
口口口口 |----|
口口口口 |②---|
②②①① |----|
80
口口口口 |①---|
口口口口 |②---|
④③②① |③---|
口口口口 |④---|
81
口口①口 |①---|
口口②口 |②---|
口口③口 |③---|
口口④口 |④---|
82
口口口④ |①---|
③口口口 |②---|
口口口② |③---|
①口口口 |④---|
83
口①①口 |①---|
口②②口 |②---|
口③③口 |③---|
口口口口 |----|
84
口口口② |①---|
口口口口 |----|
口口口① |②---|
口口口口 |----|
85
口口②口 |①---|
口口口口 |----|
口口①口 |②---|
口口口口 |----|
86
口口口口 |①---|
①②③④ |②---|
口口口口 |③---|
口口口口 |④---|
87
口口口口 |①---|
口口口口 |②---|
①②③口 |③---|
口口口口 |----|
88
口口口口 |①---|
口口口口 |----|
口口口口 |②---|
口①②口 |----|
89
口口口口 |①---|
口口口口 |----|
口②①口 |②---|
口口口口 |----|
90
口口口口 |①---|
口①②口 |----|
口口口口 |②---|
口口口口 |----|
91
口②①口 |①---|
口口口口 |----|
口口口口 |②---|
口口口口 |----|
92
口口口口 |①---|
口口④② |②---|
口口③① |③---|
口口口口 |④---|
93
①口口口 |①---|
②口口口 |②---|
③口口口 |③---|
④口口口 |④---|
94
口口口口 |①---|
口口④② |②---|
口口口口 |③---|
口口③① |④---|
95
口①口口 |①---|
口②口口 |②---|
口③口口 |③---|
口口口口 |----|
96
④口口口 |①---|
口口口③ |②---|
②口口口 |③---|
口口口① |④---|
97
口口口① |①---|
②口口口 |②---|
口口口③ |③---|
口口口口 |----|
98
口口④口 |①---|
口③口口 |②---|
口口②口 |③---|
口①口口 |④---|
99
口①口口 |①---|
口口②口 |②---|
口③口口 |③---|
口口④口 |④---|
100
③口口③ |①---|
②口口② |--②-|
①口口① |----|
口口口口 |③---|
101
口①①口 |--①-|
口②②口 |----|
口口口口 |②---|
口口口口 |----|

不確定度: 0

最終更新:2016年04月25日 03:45