日天悦扇紊舞
Akhuta

ADVANCED

Level: 7
BPM: 192
Notes: 488

1
口口口口 |----|
口口口口 |----|
口口口口 |----|
口口口口
2
口口口口 |①---|
口口口口 |----|
口口口口 |----|
①口口口
3
口口口口 |----|
口口口口 |①---|
口口口口 |----|
口口口①
4
口口口口 |----|
口口口口 |----|
口口口口 |----|
口口口口
5
口口口口 |①---|
口口口口 |----|
口口口① |----|
口口口口
6
口口口口 |----|
口口口口 |①---|
①口口口 |----|
口口口口
7
口口口口 |----|
口口口口 |----|
口口口口 |----|
口口口口
8
口口口口 |①---|
①口口口 |----|
口口口口 |----|
口口口口
9
口口口口 |----|
口口口① |①---|
口口口口 |----|
口口口口
10
口口口口 |----|
口口口口 |----|
口口口口 |----|
口口口口
11
口口口① |①---|
口口口口 |----|
口口口口 |----|
口口口口
12
①口口口 |----|
口口口口 |①---|
口口口口 |----|
口口口口
13
口口口口 |----|
口口口口 |----|
口口口口 |----|
口口口口
14
口口口口 |----|
口口口口 |----|
口口口口 |----|
口口口口
15
②口口口 |①---|
口口口口 |----|
口口口口 |②---|
口①①口
16
口口口口 |----|
口①口口 |①---|
口口口口 |----|
口口口口
17
口口口口 |①---|
口口口口 |----|
口口①口 |②---|
口口口②
18
口口口② |①---|
口口口口 |----|
口口口口 |②---|
口①①口
19
口口口口 |----|
口口①口 |①---|
口口口口 |----|
口口口口
20
口口口口 |①---|
口口口口 |----|
口①口口 |②---|
②口口口
21
口口①口 |①---|
口口口口 |--②-|
口口②口 |----|
口口口口
22
口②口口 |①---|
口口口口 |--②-|
口①口口 |----|
口口口口
23
口口口① |①---|
口口口口 |--②-|
口口口② |----|
口口口口
24
①口口口 |①---|
口口口口 |--②-|
②口口口 |----|
口口口口
25
口口②口 |①---|
口口口口 |--②-|
口口①口 |----|
口口口口
26
口①口口 |①---|
口口口口 |--②-|
口②口口 |----|
口口口口
27
口口①口 |①---|
口口口口 |----|
口口口口 |----|
口口口口
28
③口口口 |①---|
口①②口 |--②-|
口②①口 |----|
口口口③ |③---|
29
口口口① |--①-|
口②②口 |----|
口③③口 |②---|
①口口口 |③---|
30
口②①③ |①---|
口口口口 |--②-|
口口口口 |----|
③①②口 |③---|
31
①口口口 |--①-|
③口口② |----|
③口口② |②---|
口口口① |③---|
32
口口③口 |①---|
口②①口 |--②-|
口①②口 |----|
口③口口 |③---|
33
口①口口 |--①-|
口③③口 |----|
口②②口 |②---|
口口①口 |③---|
34
③③①① |①---|
口口口口 |--②-|
②②口口 |----|
口口口口 |③---|
35
③③口口 |①---|
口口②② |--②-|
口口①① |----|
口口口口 |③---|
36
口口口口 |①---|
口口口口 |----|
①①口口 |----|
口口口口 |----|
37
口口口口 |----|
口口口口 |----|
口口口口 |----|
口口口口 |----|
38
口口口口 |①---|
口口口口 |--②-|
④口口① |③---|
④②③① |④---|
39
②③④口 |①---|
口口口① |②-③-|
口口口① |④---|
口口口口 |----|
40
口口口口 |①---|
②③④① |②-③-|
口口口① |④---|
口⑤⑥口 |⑤-⑥-|
41
④口口④ |①-②-|
口③口口 |③---|
口①②口 |④---|
口口口口 |----|
42
口口口口 |①---|
⑤④口⑤ |②-③-|
①③口① |④---|
口②口口 |⑤---|
43
①口口① |①---|
口口④口 |②-③-|
口口③口 |④---|
口口②口 |----|
44
①④口口 |①---|
①④③② |②-③-|
口口⑥⑤ |④---|
口口口口 |⑤-⑥-|
45
口口④④ |--①-|
③③口口 |②---|
①②口口 |③---|
口口口口 |④---|
46
口口口口 |①---|
口口口口 |--②-|
①口口④ |③---|
①③②④ |④---|
47
口④③② |①---|
①口口口 |②-③-|
①口口口 |④---|
口口口口 |----|
48
口口口口 |①---|
①④③② |②-③-|
①口口口 |④---|
口⑥⑤口 |⑤-⑥-|
49
④口口④ |①-②-|
口口③口 |③---|
口②①口 |④---|
口口口口 |----|
50
口口口口 |①---|
⑤口④⑤ |②-③-|
①口③① |④---|
口口②口 |⑤---|
51
①口口① |①---|
口④口口 |②-③-|
口③口口 |④---|
口②口口 |----|
52
口口④① |①---|
②③④① |②-③-|
⑤⑥口口 |④---|
口口口口 |⑤-⑥-|
53
④④口口 |--①-|
口口③③ |②---|
口口②① |③---|
口口口口 |④---|
54
口口口口 |①-②-|
⑤口⑦⑥ |③-④-|
⑤口③④ |⑤---|
①②口口 |⑥-⑦-|
55
②①⑥⑦ |①-②-|
④⑤口口 |③---|
口口口③ |④-⑤-|
口口口③ |⑥-⑦-|
56
口口口⑥ |①---|
⑤④口⑥ |②-③-|
①口③② |④-⑤-|
①口口口 |⑥---|
57
口口口口 |①-②-|
⑤口口口 |③-④-|
⑤口③④ |⑤---|
①②口口 |----|
58
口口④⑧ |①-②-|
⑦③口口 |③-④-|
口口②⑥ |⑤-⑥-|
⑤①口口 |⑦-⑧-|
59
⑤①口口 |①-②-|
口口②⑥ |③-④-|
⑦③口口 |⑤-⑥-|
口口④⑧ |⑦-⑧-|
60
口①⑧口 |①-②-|
口⑦②口 |③-④-|
口③⑥口 |⑤-⑥-|
口⑤④口 |⑦-⑧-|
61
①口口口 |①-②-|
⑦口口② |③-④-|
③口口⑥ |⑤-⑥-|
⑤口口④ |⑦---|
62
①④③② |①---|
口⑤口口 |②---|
口口口口 |③---|
口口口口 |④-⑤-|
63
口口口④ |--①-|
③口②口 |②---|
口口①口 |③---|
口口口口 |④---|
64
口口口口 |①---|
口③④口 |②---|
口口②① |③-④-|
口⑤口口 |--⑤-|
65
口口口口 |----|
口口口口 |----|
口①①口 |----|
口口口口 |①---|
66
②③③② |①---|
口①①口 |--②-|
口口口口 |----|
口口口口 |③---|
67
③口口③ |①---|
口①①口 |--②-|
②口口② |----|
口口口口 |③---|
68
口口口口 |①---|
口②①③ |--②-|
口②①③ |----|
口口口口 |③---|
69
口①①口 |①---|
口口口口 |--②-|
口口口口 |----|
口②②口 |----|
70
①口口① |①---|
口口口口 |②-③-|
口④②口 |--④-|
口⑤③口 |⑤---|
71
口口口口 |①-②-|
口⑤⑤口 |--③-|
③口口① |④---|
④口口② |⑤---|
72
①①①① |①---|
③④④② |--②-|
口③②口 |③---|
口口口口 |④---|
73
口口口口 |①-②-|
⑥口口⑤ |③-④-|
⑥口口⑤ |⑤---|
②④③① |⑥---|
74
口⑧①口 |①-②-|
口②⑦口 |③-④-|
口⑥③口 |⑤-⑥-|
口④⑤口 |⑦-⑧-|
75
口口口① |①-②-|
②口口口 |③-④-|
口口口③ |⑤---|
④口口⑤ |----|
76
①口口① |①---|
④口口④ |--②-|
口③②口 |③---|
口口口口 |④---|
77
⑥②①⑥ |①-②-|
口④③口 |③-④-|
口口⑤口 |⑤---|
口口口口 |⑥---|
78
口口口口 |①---|
③③③口 |--②-|
口②②② |----|
①①①口 |③---|
79
口①①① |--①-|
口③③口 |----|
口口口口 |②---|
②口口② |③---|
80
①①①① |①---|
③④④② |--②-|
口③②口 |③---|
口口口口 |④---|
81
口口口口 |①-②-|
⑥口口⑤ |③-④-|
⑥口口⑤ |⑤---|
②④③① |⑥---|
82
口⑧①口 |①-②-|
口②⑦口 |③-④-|
口⑥③口 |⑤-⑥-|
口④⑤口 |⑦-⑧-|
83
口口口① |①-②-|
②口口口 |③-④-|
口口口③ |⑤---|
④口口⑤ |----|
84
①口口① |①---|
口②②口 |--②-|
③口口③ |----|
口口口口 |③---|
85
口①①口 |①---|
③口口② |----|
口③②口 |②---|
口口口口 |③---|
86
口②①口 |①-②-|
口④③口 |③-④-|
⑧口口⑦ |⑤-⑥-|
⑥口口⑤ |⑦-⑧-|
87
口口口① |①-②-|
②⑥⑥口 |③-④-|
口口③口 |⑤---|
口④⑤口 |⑥---|
88
口口口口 |①---|
口口口口 |----|
①②口口 |②---|
口口口口 |----|
89
口口①② |①---|
口口口口 |----|
口口口口 |②---|
口口口口 |----|
90
口口口口 |①---|
口口口口 |----|
口口②① |②---|
口口口口 |----|
91
②①口口 |①---|
口口口口 |----|
口口口口 |②---|
口口口口 |----|
92
④④①① |①---|
口⑥③口 |②-③-|
口②⑤口 |④---|
口口口口 |⑤-⑥-|
93
口口口口 |①-②-|
②⑧口① |③-④-|
④口⑦③ |⑤-⑥-|
口⑥⑤口 |⑦-⑧-|
94
④④①① |①---|
口口③口 |②-③-|
口②口⑤ |④---|
⑥口口口 |⑤-⑥-|
95
口口口口 |①---|
口①口① |②---|
②口②口 |③---|
口③口③ |----|
96
口⑤④③ |①-②-|
口⑥⑦② |③-④-|
口口⑧① |⑤-⑥-|
口口口口 |⑦-⑧-|
97
口口口口 |①-②-|
口口口口 |③-④-|
④⑤口口 |⑤---|
③②①口 |----|
98
①②口口 |①-②-|
口③口口 |③-④-|
口④口⑧ |⑤-⑥-|
口⑤⑥⑦ |⑦-⑧-|
99
⑤⑦口⑥ |①-②-|
④③②① |③-④-|
口口口口 |⑤--⑥|
口口口口 |--⑦-|
100
口口口口 |①---|
②③口① |②-③-|
口口口① |--④-|
口口⑤④ |⑤---|
101
口口④③ |①-②-|
口⑤⑤口 |--③-|
①②口口 |④---|
口口口口 |⑤---|

不確定度: 0

最終更新:2016年04月25日 03:45