Shining Wizard
96

ADVANCED

Level: 8
BPM: 158
Notes: 585

1
口口口口 |----|
口口口口 |----|
口口口口 |----|
口口口口 |----|
2
①②③口 |①-②-|
口⑥⑤④ |③-④-|
口口口口 |⑤-⑥-|
口⑦⑧口 |⑦-⑧-|
3
①②③口 |①-②-|
口口⑤④ |③-④-|
⑦⑥口口 |⑤-⑥-|
口口口口 |⑦-|
4
①②③口 |①-②-|
口⑥⑤④ |③-④-|
口口口口 |⑤-⑥-|
口⑦⑧口 |⑦-⑧-|
5
①②③口 |①-②-|
口口⑤④ |③-④-|
⑦⑥口口 |⑤-⑥-|
口口口口 |⑦-|
6
①②③口 |①-②-|
口⑥⑤④ |③-④-|
口口口口 |⑤-⑥-|
口⑦⑧口 |⑦-⑧-|
7
①②③口 |①-②-|
口口⑤④ |③-④-|
⑦⑥口口 |⑤-⑥-|
口口口口 |⑦-|
8
①②③口 |①-②-|
口⑥⑤④ |③-④-|
口口口口 |⑤-⑥-|
口⑦⑧口 |⑦-⑧-|
9
①②③口 |①-②-|
口口⑤④ |③-④-|
⑦⑥口口 |⑤-⑥-|
口口口口 |⑦-|
10
①②③口 |①-②-|
口⑥⑤④ |③-④-|
口口口口 |⑤-⑥-|
口⑦⑧口 |⑦-⑧-|
11
①②③口 |①-②-|
口口⑤④ |③-④-|
⑦⑥口口 |⑤-⑥-|
口口口口 |⑦-|
12
①②③口 |①-②-|
口⑥⑤④ |③-④-|
口口口口 |⑤-⑥-|
口⑦⑧口 |⑦-⑧-|
13
①②③口 |①-②-|
口口⑤④ |③-④-|
⑦⑥口口 |⑤-⑥-|
口口口口 |⑦-|
14
①②③口 |①-②-|
①⑥⑤④ |③-④-|
口⑦⑧④ |⑤-⑥-|
口⑦⑧口 |⑦-⑧-|
15
①②③口 |①-②-|
①口⑤④ |③-④-|
⑦⑥口④ |⑤-⑥-|
口⑥口口 |⑦-|
16
①②③口 |①-②-|
①⑥⑤④ |③-④-|
口⑦⑧④ |⑤-⑥-|
口⑦⑧口 |⑦-⑧-|
17
①②③口 |①-②-|
①口⑤④ |③-④-|
⑦⑥口④ |⑤-⑥-|
口⑥口口 |⑦-|
18
①②③口 |①-②-|
①⑥⑤④ |③-④-|
口⑦⑧④ |⑤-⑥-|
⑦⑦⑧⑧ |⑦-⑧-|
19
①②③口 |①-②-|
①口⑤④ |③-④-|
⑦⑥口④ |⑤-⑥-|
口⑥口口 |⑦-|
20
①②③口 |①-②-|
①⑥⑤④ |③-④-|
口⑦⑧④ |⑤-⑥-|
⑦⑦⑧⑧ |⑦-⑧-|
21
①②③口 |①-②-|
①口⑤④ |③-④-|
⑦⑥口④ |⑤-⑥-|
口⑥口口 |⑦-|
22
②③④口 |①-②-|
⑧⑦⑥⑤ |③-④-|
口口口口 |⑤-⑥-|
①口口口 |⑦-⑧-|
23
口口口口 |--①-|
③④口口 |--②-|
口②②口 |--③-|
口①①口 |④-|
24
⑧口口口 |①-②-|
口⑥①③ |③-④-|
⑦口④口 |⑤-⑥-|
口⑤口② |⑦-⑧-|
25
口口口② |--①-|
口口③口 |②-③-|
口口口① |--④-|
口④④口 |--|
26
②③④口 |①-②-|
⑧⑦⑥⑤ |③-④-|
口①①口 |⑤-⑥-|
口口口口 |⑦-⑧-|
27
口口口口 |--①-|
③④口口 |--②-|
口②②口 |--③-|
口①①口 |④-|
28
口口口口 |①---|
口口①口 |②-③-|
口口口口
②③口口

口口口口
口口⑤⑤
口口④④ |--④-|
口口口口 |--⑤-|
29
①②③口 |--①-|
④⑤⑥口 |②-③-|
口口口口 |④-⑤-|
口口口口 |⑥-|
30
⑥④③① |--①-|
口口口口 |②-③-|
⑦⑤口② |④-⑤-|
口口口口 |⑥-⑦-|
31
口口口口 |--①-|
①②③口 |②-③-|
口口口口 |--④-|
口口⑤④ |⑤-|
32
③④⑤⑦ |①-②-|
口口口口 |③-④-|
②⑧⑥⑧ |⑤-⑥-|
口①口口 |⑦-⑧-|
33
②口②口 |--①-|
①口①口 |--②-|
口口口口 |--③-|
口口④③ |④-|
34
⑦⑤④② |①-②-|
口口口口 |③-④-|
⑧⑥口③ |⑤-⑥-|
口①口口 |⑦-⑧-|
35
口口口口 |--①-|
口①②口 |--②-|
口口口口 |--③-|
口口④③ |④-|
36
口④④口 |①---|
口口口③ |--②-|
口②②口 |----|
口①口口 |③-④-|
37
①口口① |----|
口口口口 |①---|
口口口口 |----|
口口口口 |--|
38
①②③口 |--①-|
⑦⑥⑤④ |②-③-|
口口口口 |④-⑤-|
口口口口 |⑥-⑦-|
39
口口口口 |--①-|
④口口④ |--②-|
③②②③ |--③-|
口①①口 |--④-|
40
口①②口 |①-②-|
口④⑤口 |--③-|
③⑥口③ |--④-|
口口口口 |⑤-⑥-|
41
口口口口 |①---|
③口口③ |--②-|
口口①口 |----|
②口口② |③---|
42
①②③口 |--①-|
⑦⑥⑤④ |②-③-|
口口口口 |④-⑤-|
口口口口 |⑥-⑦-|
43
口口口口 |--①-|
④口口④ |--②-|
③②②③ |--③-|
口①①口 |--④-|
44
口①②口 |①-②-|
口④⑤口 |--③-|
③⑥口③ |--④-|
口口口口 |⑤-⑥-|
45
口口口口 |①---|
③口口③ |--②-|
口口①口 |----|
②口口② |③---|
46
①②③口 |--①-|
⑦⑥⑤④ |②-③-|
口口口口 |④-⑤-|
口口口口 |⑥-⑦-|
47
口口口口 |--①-|
④口口④ |--②-|
③②②③ |--③-|
口①①口 |--④-|
48
口①②口 |①-②-|
口④⑤口 |--③-|
③⑥口③ |--④-|
口口口口 |⑤-⑥-|
49
口口口口 |①---|
③口口③ |--②-|
口口①口 |----|
②口口② |③---|
50
①②③口 |--①-|
⑦⑥⑤④ |②-③-|
口口口口 |④-⑤-|
口口口口 |⑥-⑦-|
51
口口口口 |--①-|
④口口④ |--②-|
③②②③ |--③-|
口①①口 |--④-|
52
①口口① |①---|
口③③口 |--②-|
②口口② |----|
口口口口 |③---|
53
②口口② |①---|
口口口口 |--②-|
②口口② |----|
口①①口 |----|
54
①②③口 |--①-|
⑦⑥⑤④ |②-③-|
口口口口 |④-⑤-|
口口口口 |⑥-⑦-|
55
口口口口 |--①-|
口口口口 |②-③-|
①②③口 |④-⑤-|
⑦⑥⑤④ |⑥-⑦-|
56
①②③口 |--①-|
④⑤⑥⑦ |②-③-|
口口口口 |④-⑤-|
口口口口 |⑥-⑦-|
57
口口口口 |--①-|
口口口口 |②-③-|
①②③口 |④-⑤-|
④⑤⑥⑦ |⑥-⑦-|
58
①②③口 |--①-|
④⑤⑥口 |②-③-|
口口口口 |--④-|
口口口口 |⑤-⑥-|
59
口口口口 |--①-|
⑦口口⑤ |②-③-|
①②③口 |④-⑤-|
⑥口口④ |⑥-⑦-|
60
口①①口 |①---|
口口口口 |----|
口口口口 |----|
口口口口 |----|
61
口口口口 |①---|
口口口口 |----|
①①①① |----|
口口口口 |----|
62
①②③口 |①-②-|
口⑥⑤④ |③-④-|
口口口口 |⑤-⑥-|
口口口口
63
口口口口 |①-②-|
⑦口口口 |③-④-|
①②③⑦ |⑤-⑥-|
口⑥⑤④ |⑦---|
64
①②③口 |①-②-|
口⑥⑤④ |③-④-|
口口口口 |⑤-⑥-|
口口口口
65
口口口口 |①-②-|
口口口口 |③-④-|
①②③口 |⑤-⑥-|
口⑥⑤④
66
①②③口 |①-②-|
口⑥⑤④ |③-④-|
口口口口 |⑤-⑥-|
口口口口
67
口口口口 |①-②-|
⑦口口口 |③-④-|
①②③⑦ |⑤-⑥-|
口⑥⑤④ |⑦---|
68
①②③口 |①-②-|
口⑥⑤④ |③-④-|
口口口口 |⑤-⑥-|
口口口口
69
口口口口 |①-②-|
口口口口 |③-④-|
①②③口 |⑤-⑥-|
口⑥⑤④
70
①②③口 |①-②-|
①⑥⑤④ |③-④-|
口⑦⑧④ |⑤-⑥-|
口⑦⑧口 |⑦-⑧-|
71
①②③口 |①-②-|
①口⑤④ |③-④-|
⑦⑥口④ |⑤-⑥-|
口⑥口口 |⑦-|
72
①②③口 |①-②-|
①⑥⑤④ |③-④-|
口⑦⑧④ |⑤-⑥-|
口⑦⑧口 |⑦-⑧-|
73
①②③口 |①-②-|
①口⑤④ |③-④-|
⑦⑥口④ |⑤-⑥-|
口⑥口口 |⑦-|
74
①②③口 |①-②-|
①⑥⑤④ |③-④-|
口⑦⑧④ |⑤-⑥-|
⑦⑦⑧⑧ |⑦-⑧-|
75
①②③口 |①-②-|
①口⑤④ |③-④-|
⑦⑥口④ |⑤-⑥-|
口⑥口口 |⑦-|
76
①②③口 |①-②-|
①⑥⑤④ |③-④-|
口⑦⑧④ |⑤-⑥-|
⑦⑦⑧⑧ |⑦-⑧-|
77
①②③口 |①-②-|
①口⑤④ |③-④-|
⑦⑥口④ |⑤-⑥-|
口⑥口口 |⑦-|
78
口口口口 |①---|
口口口口 |----|
口口口口 |----|
①口口① |----|


不確定度: 0

タグ:

+ タグ編集
  • タグ:

このサイトはreCAPTCHAによって保護されており、Googleの プライバシーポリシー利用規約 が適用されます。

最終更新:2013年03月29日 19:57