霖が哭く
Power Of Nature

EXTREME

Level: 10
BPM: 154
Notes: 828

1
口口口口 |----|
口口口口 |----|
口①②口 |--①②|
口③④口 |③④|
2
①口口① |①---|
口口口口 |----|
口口口口 |----|
口口口口 |--|
3
口口口口 |----|
口①①口 |----|
口口口口 |--①-|
口口口口 |--|
4
①③④③ |①-②-|
②口口⑤ |-③-④|
①口口⑥ |--⑤-|
口口口⑤ |⑥-|
5
③口口口 |-①-②|
④⑤⑥口 |--③-|
③⑥⑤口 |④--⑤|
①②①口 |-⑥|
6
③④③① |①-②-|
⑤口口② |-③-④|
⑥口口① |--⑤-|
⑤口口口 |⑥-|
7
口口口③ |-①-②|
口⑥⑤④ |--③-|
口⑤⑥③ |④--⑤|
口①②① |-⑥|
8
①⑦⑦口 |①-②-|
②口口⑤ |-③-④|
①口口⑥ |--⑤-|
③④③⑤ |⑥⑦|
9
口口口口 |----|
①口口① |---①|
口口口口 |----|
①口口① |--|
10
①②⑤⑥ |①-②-|
口口口口 |③-④⑤|
③④⑥⑤ |-⑥--|
口口口口 |--|
11
⑥⑤口口 |①-②-|
口口①② |③-④⑤|
⑤⑥④③ |-⑥--|
口口口口 |--|
12
口口口口 |①②③-|
口④④③ |④--⑤|
口⑤⑤②
口口口①

⑥口口⑥
口口口口
口口口口 |-⑥-⑦|
口⑨⑧⑦ |⑧⑨|
13
口口口口 |①-②-|
②③④① |-③-④|
②④③①
①口口口

⑤口口⑤
口口口口
口口口口 |--⑤-|
⑥口口⑥ |⑥-|
14
口③口口 |①-②③|
④口口① |--④-|
口口口②
口④①口

口口⑥口
口⑨⑧⑦
⑤口口口 |⑤⑥-⑦|
口口口口 |⑧⑨|
15
⑦口口⑦ |①②③④|
口口口口 |⑤⑥⑦-|
口③②①
口⑥⑤④

口⑨⑧口
⑧⑩口口
⑨口⑩口 |⑧-⑨-|
口口口口 |⑩-|
16
口口口口 |①-②③|
口口①⑦ |④⑤⑥⑦|
口①口⑥
②③④⑤

⑪⑩⑨⑧
口口⑫口
口口⑫口 |⑧⑨⑩⑪|
口口口口 |⑫-|
17
口口⑦⑩ |①②③④|
④⑤口⑨ |⑤-⑥⑦|
③⑥⑪⑧ |-⑧⑨⑩|
②①⑫口 |⑪⑫|
18
①②⑤⑥ |①-②-|
口口口口 |③-④⑤|
③④⑥⑤ |-⑥--|
口口口口 |--|
19
⑥⑤口口 |①-②-|
①口口② |③-④⑤|
⑤⑥④③ |-⑥--|
①口口② |--|
20
口口口口 |①②③-|
口④④③ |④--⑤|
口⑤⑤②
口口口①

⑥口口⑥
口口口口
口口口口 |-⑥-⑦|
口⑨⑧⑦ |⑧⑨|
21
口口口口 |①-②-|
②③④① |-③-④|
②④③①
①口口口

⑤口口⑤
口口口口
口口口口 |--⑤-|
⑥口口⑥ |⑥-|
22
口③口口 |①-②③|
④口口① |--④-|
口口口②
口④①口

口口⑥口
口⑨⑧⑦
⑤口口口 |⑤⑥-⑦|
口口口口 |⑧⑨|
23
⑦口口⑦ |①②③④|
口口口口 |⑤⑥⑦-|
口③②①
口⑥⑤④

口⑨⑧口
⑧⑩口口
⑨口⑩口 |⑧-⑨-|
口口口口 |⑩-|
24
口口口口 |①-②③|
⑤口①③ |-④⑤-|
口①口口
口④②口

⑦口口口
口⑨⑧口
口口⑩口 |⑥⑦-⑧|
⑥口口口 |⑨⑩|
25
口口口④ |①②③-|
口口口③ |④---|
口①口③
口口②④

⑤⑥⑦口
口口口口
⑤⑥⑦口 |-⑤-⑥|
口口口口 |-⑦|
26
口口口口 |--①②|
④⑩⑨② |-③④-|
⑧口口⑦ |⑤⑥⑦⑧|
⑥③①⑤ |⑨⑩|
27
口②①口 |①②-③|
口口口口 |④⑤⑥-|
口③④口
口⑤⑥口

⑦⑨口口
口口⑨⑧
口口口⑦ |-⑦-⑧|
⑧口口口 |-⑨|
28
口口口① |-①-②|
④②口口 |-③-④|
③①③口
口口④②

⑦⑥口⑦
口口口⑤
口口口口 |-⑤-⑥|
⑤⑥口口 |-⑦|
29
口口①口 |---①②③|
⑧口②⑦ |④--⑤|
①②③④ |-⑥-⑦|
⑤口④⑥ |-⑧|
30
①②③口 |①-②-|
⑥口口⑦ |③--④|
①②③口 |-⑤-⑥|
⑤口口④ |-⑦|
31
口③②① |①-②-|
⑦口口⑥ |③--④|
口③②① |-⑤-⑥|
④口口⑤ |-⑦|
32
①②③口 |①-②-|
口口口口 |③---|
①②③口
口口口口

口口口口
⑨口口⑧
⑦口口⑥ |④⑤⑥⑦|
⑤口口④ |⑧⑨|
33
口②②口 |①---|
口口口口 |---②|
口口口口 |----|
口①①口 |--|
34
口口口口 |①---|
口③②口 |---②|
①口口① |---③|
②口口③ |--|
35
①口口① |①---|
口口口口 |---②|
①②②① |----|
口口口口 |--|
36
口口口口 |①---|
口⑥⑤口 |----|
口④③口 |-②③④|
①②口① |⑤⑥|
37
①③口① |①-②-|
口⑧⑨④ |③-④-|
口口⑤口 |⑤-⑥⑦|
②⑥⑦② |⑧⑨|
38
①口③① |①-②-|
④⑨⑧口 |③-④-|
口⑤口口 |⑤-⑥⑦|
②⑦⑥② |⑧⑨|
39
⑨⑧⑦⑥ |①②③-|
④⑪⑩③ |④-⑤-|
②⑤⑤口 |⑥⑦⑧⑨|
④口口① |⑩⑪|
40
口⑭⑬口 |①②③④|
⑫⑪⑩⑨ |⑤⑥⑦⑧|
⑧⑦⑥⑤ |⑨⑩⑪⑫|
④③②① |⑬⑭|
41
②⑧⑨① |①-②-|
口口⑤口 |③-④-|
口⑥⑦④ |⑤-⑥⑦|
①③口② |⑧⑨|
42
①⑨⑧② |①-②-|
口⑤口口 |③-④-|
④⑦⑥口 |⑤-⑥⑦|
②口③① |⑧⑨|
43
④口⑦③ |①②③-|
②⑨口⑥ |④-⑤-|
⑪口⑧① |⑥⑦⑧⑨|
⑤⑩口④ |⑩⑪|
44
②口④① |①--②|
口口口③ |-③④-|
口①口口
口口口②

口⑨口口
⑩口⑦口
口⑧口⑤ |⑤⑥⑦⑧|
口口⑥口 |⑨⑩|
45
口口口② |①--②|
口①口口 |-③④-|
口口口③
②口④①

口口⑥口
口⑧口⑤
⑩口⑦口 |⑤⑥⑦⑧|
口⑨口口 |⑨⑩|
46
②口④① |①--②|
口口口③ |-③④-|
口①口口
口口口②

口⑤口口
⑥口⑦口
口⑧口⑨ |⑤⑥⑦⑧|
口口⑩口 |⑨⑩|
47
①③④② |①--②|
③口⑤⑥ |--③-|
④⑤①口 |④-⑤-|
②⑥口③ |⑥-|
48
②⑧③① |①--②|
⑨②⑥口 |--③-|
③⑦②④ |④⑤⑥⑦|
①口⑤② |⑧⑨|
49
口口口② |①--②|
口①口口 |--③-|
口口口③
②口③①

口口⑤口
口⑦口④
⑨口⑥口 |④⑤⑥⑦|
口⑧口口 |⑧⑨|
50
②口④① |①--②|
口口口③ |-③④-|
口①口口
口口口②

口⑤口口
⑥口⑦口
口⑧口⑨ |⑤⑥⑦⑧|
口口⑩口 |⑨⑩|
51
口③口② |①--②|
③①口口 |--③-|
口口口口
②口口①

⑥口④口
口⑥口④
④口⑥⑤ |④-⑤-|
口④⑤⑥ |⑥-|
52
口②口① |①---|
口口①② |----|
口①口口 |②---|
①口口口 |--|
53
口口口口 |--①-|
口口②口 |----|
①口口口 |--②-|
口②①口 |--|
54
口①口口 |----|
口口口② |①---|
口口①口 |----|
口口口口 |②-|
55
口口口口 |----|
口口口口 |--①-|
口①口口 |----|
口口口口 |--|
56
口口口口 |①---|
②口口口 |----|
口口口口 |②---|
口口口① |--|
57
口①①口 |①---|
口口口② |----|
口口口口 |--②-|
口②口口 |--|
58
口③口口 |①---|
①口②口 |----|
②③口口 |--②-|
口口①口 |③-|
59
⑤口口口 |①-②-|
⑥口口③ |-③-④|
⑤口口④ |--⑤-|
①②①③ |⑥-|
60
口口口① |-①-②|
⑤口②口 |--③-|
⑥①口口 |④--⑤|
⑤③④③ |-⑥|
61
口①⑤口 |①-②-|
口⑥②口 |-③-④|
⑤⑦⑦① |--⑤-|
口③④③ |⑥⑦|
62
口口口① |----|
①口②③ |---①|
①口④③ |②-③-|
口口口⑤ |④⑤|
63
①②⑤口 |①-②-|
口口口口 |③-④⑤|
③④口⑤
口②①口

口口口⑥
⑧口口⑦
口口⑥口 |-⑥⑦⑧|
口⑩口⑨ |⑨⑩|
64
口口口口 |①-②-③-|
口④⑤⑥ |④-⑤-⑥-|
②③口口
①口口口
65
①②⑤口 |①-②-|
口口口口 |③-④⑤|
③④口⑤
口②①口

口口口⑥
口口口口
口口⑥口 |-⑥-⑦|
口⑨⑧⑦ |⑧⑨|
66
口⑤③④ |①-②-|
①①②② |③-④⑤|
⑤口④③
①口口口

⑥口口口
口口口口
口⑥口口 |-⑥-⑦|
⑦⑧⑨口 |⑧⑨|
67
口④口口 |①②③-|
⑤⑥口③ |④-⑤⑥|
⑥⑤④②
口口口①

⑦口口⑦
口口口口
口口口口 |-⑦-⑧|
口⑩⑨⑧ |⑨⑩|
68
口②①口 |①-②-|
③④⑤③ |③④-⑤|
④⑤②①
①口口口

⑥口口⑦
口口口口
口口口口 |--⑥-|
⑦口口⑥ |⑦-|
69
口①④口 |①-②③|
④⑨⑧⑦ |--④-|
⑥口①③ |⑤⑥-⑦|
口⑤②口 |⑧⑨|
70
⑦口口⑦ |①②③④|
口口口口 |⑤⑥⑦-|
口③②①
口⑥⑤④

口⑨⑧口
⑧⑩口口
⑨口⑩口 |⑧-⑨-|
口口口口 |⑩-|
71
口口口口 |①-②③|
⑤口①③ |-④⑤-|
口①口口
口④②口

⑦口口口
口⑨⑧口
口口⑩口 |⑥⑦-⑧|
⑥口口口 |⑨⑩|
72
口口口④ |①②③-|
口口口③ |④---|
口①口③
口口②④

⑥⑧⑩口
⑤⑦⑨口
⑥⑧⑩口 |⑤⑥⑦⑧|
口口口口 |⑨⑩|
73
⑥口口口 |--①②|
④口口② |-③④-|
口口⑧⑨ |⑤⑥-⑦|
⑤③①⑦ |⑧⑨|
74
口口口口 |①②③④|
⑥③①② |⑤⑥⑦⑧|
⑦④口口
⑧⑤口口

口口⑩⑨
口⑪⑪口
口口⑨⑩ |-⑨-⑩|
口口口口 |-⑪|
75
口①口口 |①-②③|
③口口⑤ |-④⑤-|
口①口口
口②④口

⑦⑧口口
口⑩⑨口
口口口口 |⑥⑦-⑧|
⑥口口口 |⑨⑩|
76
⑤⑦④④ |①②③-|
口口⑦⑥ |④---|
口②①⑤ |-⑤-⑥|
⑥口③③ |-⑦|
77
口口口① |-①-②|
④②口口 |-③-④|
③①③口
口口④②

⑦⑥⑤⑦
口口口口
口口口口 |-⑤-⑥|
⑤⑥口口 |-⑦|
78
口⑤口口 |①-②-|
⑤③①④ |-③-④|
③①②④ |--⑤-|
⑥⑥口② |⑥-|
79
口口②② |-①-②|
口口口口 |--③-|
口③①口
口口③①

④④口口
口⑤口⑥
⑤口⑥口 |④--⑤|
口口口口 |-⑥|
80
③口①④ |①-②-|
②口口口 |-③-④|
口口口②
④①口③

口⑥⑥口
口⑤⑤口
口⑤⑤口 |--⑤-|
口⑥⑥口 |⑥-|
81
口口口口 |-①--|
①口口① |----|
①口口① |----|
口口口口 |--|

不確定度: 0

最終更新:2016年06月09日 22:21