twinkle noise
ZUKI

BASIC

Level: 3
BPM: 140
Notes: 251

1
口口口口 |----|
口口口口 |----|
口口口口 |----|
口口口口 |----|
2
口口口口 |①---|
②口口口 |----|
①口口口 |②---|
口口口口 |----|
3
口口口口 |①---|
口①口口 |----|
口②口口 |②---|
口口口口 |----|
4
口口口口 |①---|
口口②口 |----|
口口①口 |②---|
口口口口 |----|
5
口口口口 |①---|
口口口① |----|
口口口② |②---|
口口口口 |----|
6
口口口口 |①---|
口口口口 |----|
口口口口 |②---|
口②①口 |----|
7
口口口口 |①---|
③口口③ |----|
口②①口 |②---|
口口口口 |③---|
8
口口口口 |----|
口口口口 |----|
口口口口 |----|
口口口口 |----|
9
口口口口 |①---|
口①①口 |----|
口口口口 |----|
口口口口 |----|
10
口口①口 |①---|
④②口④ |②---|
口③③口 |③---|
口口口口 |④---|
11
口口④② |①---|
口口口口 |②---|
口口③① |③---|
口口口口 |④---|
12
④②口口 |①---|
口口口口 |②---|
③①口口 |③---|
口口口口 |④---|
13
口口口口 |①---|
口口④② |②---|
口口口口 |③---|
口口③① |④---|
14
口口口口 |①---|
④②口口 |②---|
口口口口 |③---|
③①口口 |④---|
15
②④口口 |①---|
口口口口 |②---|
①③口口 |③---|
口口口口 |④---|
16
口口②④ |①---|
口口口口 |②---|
口口①③ |③---|
口口口口 |④---|
17
口口口口 |①---|
②④口口 |②---|
口口口口 |③---|
①③口口 |④---|
18
口口口口 |①---|
口口②④ |②---|
口口口口 |③---|
口口①③ |④---|
19
口④口口 |①---|
③口口口 |②---|
口②口口 |③---|
①口口口 |④---|
20
口口①口 |①---|
口口口② |②---|
口口③口 |③---|
口口口④ |④---|
21
口口④口 |①---|
口③口口 |②---|
口口②口 |③---|
口①口口 |④---|
22
口①口口 |①---|
口口②口 |②---|
口③口口 |③---|
口口④口 |④---|
23
口④口口 |①---|
③口口口 |②---|
口②口口 |③---|
①口口口 |④---|
24
口口①口 |①---|
口口口② |②---|
口口③口 |③---|
口口口④ |④---|
25
口口④口 |①---|
口③口口 |②---|
口口②口 |③---|
口①口口 |④---|
26
口①口口 |①---|
口口②口 |②---|
口③口口 |③---|
口口④口 |④---|
27
口口口口 |①---|
口口口口 |----|
②口口口 |②---|
①口口口 |----|
28
口口口口 |①---|
口①①口 |----|
口②②口 |②---|
口口口口 |----|
29
口口口口 |①---|
口口口口 |----|
口口口② |②---|
口口口① |----|
30
口口口口 |①---|
口①①口 |----|
口②②口 |②---|
口口口口 |----|
31
①口口① |①---|
②口口② |----|
口口口口 |②---|
口口口口 |----|
32
口口口口 |①---|
口口口口 |----|
①③③① |②---|
②口口② |③---|
33
口口口口 |----|
口③②① |①---|
口口口口 |②---|
口口口口 |③---|
34
口②口④ |①---|
①口③口 |②---|
口口口口 |③---|
口口口口 |④---|
35
口口口口 |①---|
口口口口 |②---|
③④②① |③---|
口口口口 |④---|
36
口口口口 |①---|
口口①口 |②---|
口③③口 |③---|
口口②口 |----|
37
口口口口 |①---|
口口口口 |②---|
①②④③ |③---|
口口口口 |④---|
38
口口口口 |①---|
口①口口 |②---|
口③③口 |③---|
口②口口 |----|
39
口口口口 |①---|
口口口口 |②---|
口口③③ |③---|
①②口口 |----|
40
口口口口 |①---|
口④③口 |②---|
②②口口 |③---|
口口①口 |④---|
41
①①①① |①---|
口口②口 |----|
口口口口 |②---|
③③口口 |--③-|
42
口口③③ |--①-|
②②口口 |--②-|
口口①① |--③-|
口口口口 |----|
43
口口口口 |①---|
口口口口 |②---|
①②④③ |③---|
口口口口 |④---|
44
口口口口 |①---|
口①口口 |②---|
口③③口 |③---|
口②口口 |----|
45
口口口口 |①---|
口口口口 |②---|
③④②① |③---|
口口口口 |④---|
46
口口口口 |①---|
口口①口 |②---|
口③③口 |③---|
口口②口 |----|
47
口口口口 |①---|
口口口口 |②---|
口口③③ |③---|
①②口口 |----|
48
口口口口 |①---|
口④③口 |②---|
②②口口 |③---|
口口①口 |④---|
49
①①①① |①---|
口口②口 |----|
口口口口 |②---|
口口口口 |----|
50
口口口口 |①---|
口口口口 |----|
口①①口 |----|
口口口口 |----|
51
口口口口 |①---|
口口口口 |②---|
口③④口 |③---|
口①②口 |④---|
52
口口口口 |----|
口口口口 |----|
口口口口 |----|
口口口口 |----|
53
口③④口 |①---|
口①②口 |②---|
口口口口 |③---|
口口口口 |④---|
54
口口口口 |----|
口口口口 |----|
口口口口 |----|
口口口口 |----|
55
①口口② |①---|
③口口④ |②---|
口口口口 |③---|
口口口口 |④---|
56
口口口口 |----|
口口口口 |----|
口口口口 |----|
口口口口 |----|
57
口口口口 |①---|
口口口口 |②---|
①口口② |③---|
③口口④ |④---|
58
口口口口 |①---|
④②②④ |②---|
③①①③ |③---|
口口口口 |④---|
59
口③②① |①---|
口④口口 |②---|
口口口口 |③---|
口口口口 |④---|
60
口口口口 |①---|
口口③③ |②---|
口①②口 |③---|
口口口口 |----|
61
口口口口 |①---|
口①口口 |②---|
口②口口 |③---|
口③④口 |④---|
62
口口口口 |①---|
③③口口 |②---|
口②①口 |③---|
口口口口 |----|
63
口口口口 |①---|
口口口口 |②---|
口口③③ |③---|
①②口口 |----|
64
口口口口 |①---|
口④③口 |②---|
②②口口 |③---|
口口①口 |④---|
65
①①①① |①---|
口口②口 |----|
口口口口 |②---|
口口口口 |----|
66
口口口口 |①---|
口口口口 |②---|
③口口④ |③---|
①口口② |④---|
67
口口口口 |①---|
口①①口 |----|
口②②口 |②---|
口口口口 |----|
68
口口口口 |①---|
口口口口 |----|
②口口② |②---|
口①①口 |----|

不確定度: 0

最終更新:2016年04月25日 03:33