twinkle noise
ZUKI

ADVANCED

Level: 6
BPM: 140
Notes: 409

1
口口口口 |----|
口口口口 |----|
口口口口 |----|
口口口口 |----|
2
口口口口 |①---|
口口口口 |----|
口口口口 |----|
口口口① |----|
3
口口口口 |①---|
口口口口 |----|
口口口口 |----|
①口口口 |----|
4
口口口口 |①---|
口口口口 |----|
口口口① |----|
口口口口 |----|
5
口①①口 |①---|
口②②口 |②---|
口③③口 |③---|
口④④口 |④---|
6
口口口口 |①---|
口口口① |----|
口口口① |----|
口口口口 |----|
7
口口口口 |①---|
①②②口 |----|
①②②口 |----|
口口口口 |②---|
8
口口口口 |----|
口口口口 |----|
口口口口 |----|
口口口口 |----|
9
①②③④ |①---|
口口口口 |②---|
口口口口 |③---|
口口口口 |④---|
10
口③口口 |①-②-|
④②口④ |③---|
⑤①口⑤ |④-⑤-|
⑥口口⑥ |⑥---|
11
口口口口 |①-②-|
②③⑦⑥ |③-④-|
④①⑤⑧ |⑤-⑥-|
口口口口 |⑦-⑧-|
12
②③⑦⑥ |①-②-|
口口口口 |③-④-|
口口口口 |⑤-⑥-|
④①⑤⑧ |⑦-⑧-|
13
口口口口 |①-②-|
②③⑦⑥ |③-④-|
④①⑤⑧ |⑤-⑥-|
口口口口 |⑦-⑧-|
14
口⑦⑧口 |①-②-|
口⑤⑥口 |③-④-|
口③④口 |⑤-⑥-|
口①②口 |⑦-⑧-|
15
口口口口 |①-②-|
②③⑦⑥ |③-④-|
④①⑤⑧ |⑤-⑥-|
口口口口 |⑦-⑧-|
16
②③⑦⑥ |①-②-|
口口口口 |③-④-|
口口口口 |⑤-⑥-|
④①⑤⑧ |⑦-⑧-|
17
口口口口 |①-②-|
②③⑦⑥ |③-④-|
④①⑤⑧ |⑤-⑥-|
口口口口 |⑦-⑧-|
18
口⑦⑧口 |①-②-|
口⑤⑥口 |③-④-|
口③④口 |⑤-⑥-|
口①②口 |⑦-⑧-|
19
口口口口 |①---|
口口口口 |②---|
口口口口 |③---|
④③②① |④---|
20
口口⑥口 |①---|
口口⑤口 |②---|
口④②① |③-④-|
口③口口 |⑤-⑥-|
21
口口口口 |①---|
口口口口 |②---|
口口口口 |③---|
①②③④ |④---|
22
口①②口 |①-②-|
口③④口 |③-④-|
口⑤⑥口 |⑤-⑥-|
口⑦⑧口 |⑦-⑧-|
23
①②③④ |①---|
口口口口 |②---|
口口口口 |③---|
口口口口 |④---|
24
口口③口 |①---|
①②④口 |②---|
口⑤口口 |③-④-|
口⑥口口 |⑤-⑥-|
25
④③②① |①---|
口口口口 |②---|
口口口口 |③---|
口口口口 |④---|
26
口⑧⑦口 |①-②-|
口⑥⑤口 |③-④-|
口④③口 |⑤-⑥-|
口②①口 |⑦-⑧-|
27
口口口口 |①---|
口⑥口① |②-③-|
②③④① |④---|
口⑤口口 |⑤-⑥-|
28
口口口口 |--①-|
口口口口 |--②-|
口口①口 |----|
口②口口 |----|
29
口口口口 |----|
口口⑤口 |①-②-|
口③②① |③---|
口口④口 |④-⑤-|
30
②①口口 |--①-|
口口口口 |--②-|
口口口口 |----|
口口口口 |----|
31
①口口① |①---|
口③③口 |--②-|
口④④口 |----|
②口口② |③-④-|
32
口口口① |--①-|
②⑥口口 |②-③-|
口口⑤③ |④-⑤-|
口④口口 |⑥---|
33
③口口① |----|
口④②口 |①-②-|
口口口⑤ |③-④-|
口口⑥口 |⑤-⑥-|
34
口③③口 |①---|
口②②口 |②---|
口①①口 |③---|
口口口口 |----|
35
口口口口 |①-②-|
⑥⑥⑤⑤ |③-④-|
④口口③ |⑤---|
②口口① |⑥---|
36
③①①③ |①--②|
口口口口 |--③-|
口②②口 |----|
口口口口 |----|
37
口口口口 |①-②-|
⑤⑤⑥⑥ |③-④-|
③口口④ |⑤---|
①口口② |⑥---|
38
口①①口 |①--②|
口口口口 |--③-|
口②②口 |----|
③口口③ |----|
39
口口口口 |①-②-|
口④③口 |③-④-|
口②①口
口口口口

口口⑤⑤
口口口口
口⑥⑦口 |⑤---|
口口口口 |⑥-⑦-|
40
③③口口 |①-②-|
⑦①②⑦ |③---|
口⑤④口 |④-⑤-|
口口⑥口 |⑥-⑦-|
41
口①口口 |--①-|
口③②口 |②-③-|
口口口口
口口口口

⑦⑦口口
口口口口
口⑤④口 |④-⑤-|
口口⑥口 |⑥-⑦-|
42
口口①① |--①-|
②②③③ |--②-|
口口口口 |--③-|
口口口口 |----|
43
口口口口 |①-②-|
⑥⑥⑤⑤ |③-④-|
④口口③ |⑤---|
②口口① |⑥---|
44
③①①③ |①--②|
口口口口 |--③-|
口②②口 |----|
口口口口 |----|
45
口口口口 |①-②-|
⑤⑤⑥⑥ |③-④-|
③口口④ |⑤---|
①口口② |⑥---|
46
口①①口 |①--②|
口口口口 |--③-|
口②②口 |----|
③口口③ |----|
47
口口口口 |①-②-|
口④③口 |③-④-|
口②①口
口口口口

口口⑤⑤
口口口口
口⑥⑦口 |⑤---|
口口口口 |⑥-⑦-|
48
③③口口 |①-②-|
⑦①②⑦ |③---|
口⑤④口 |④-⑤-|
口口⑥口 |⑥-⑦-|
49
口⑦口口 |--①-|
口⑥①口 |②-③-|
口⑤②口 |④-⑤-|
口④③口 |⑥-⑦-|
50
①口口① |①---|
口口口口 |----|
口口口口 |----|
口口口口 |----|
51
口口口口 |①-②-|
⑥⑥⑤⑤ |③-④-|
口④③口 |⑤---|
口②①口 |⑥---|
52
②口口② |----|
口口口口 |----|
①口口① |①---|
口口口口 |②---|
53
口口口口 |①-②-|
⑤⑤⑥⑥ |③-④-|
口③④口 |⑤---|
口①②口 |⑥---|
54
②口口② |----|
口口口口 |----|
①口口① |①---|
口口口口 |②---|
55
口口口口 |①-②-|
⑥⑥⑤⑤ |③-④-|
口④③口 |⑤---|
口②①口 |⑥---|
56
②口口② |----|
口口口口 |----|
①口口① |①---|
口口口口 |②---|
57
口口口口 |①-②-|
⑤⑤⑥⑥ |③-④-|
口③④口 |⑤---|
口①②口 |⑥---|
58
口①②口 |①-②-|
口③④口 |③-④-|
口⑤⑥口 |⑤-⑥-|
口⑦⑧口 |⑦-⑧-|
59
口口口口 |①-②-|
①②③④ |③-④-|
⑤⑥⑦⑧ |⑤-⑥-|
口口口口 |⑦-⑧-|
60
①①口口 |①--②|
口口②② |--③-|
③③口口 |----|
口口口口 |----|
61
口口口口 |①-②-|
④③②① |③-④-|
⑧⑦⑥⑤ |⑤-⑥-|
口口口口 |⑦-⑧-|
62
口口①① |①--②|
②②口口 |--③-|
口口③③ |----|
口口口口 |----|
63
口口口口 |①-②-|
口④③口 |③-④-|
口②①口
口口口口

口口⑤⑤
口口口口
口⑥⑦口 |⑤---|
口口口口 |⑥-⑦-|
64
③③口口 |①-②-|
⑦①②⑦ |③---|
口⑤④口 |④-⑤-|
口口⑥口 |⑥-⑦-|
65
口⑦口口 |--①-|
口⑥①口 |②-③-|
口⑤②口 |④-⑤-|
口④③口 |⑥-⑦-|
66
⑧口口① |①-②-|
②口口⑦ |③-④-|
⑥口口③ |⑤-⑥-|
④口口⑤ |⑦-⑧-|
67
口①①口 |①---|
口口口口 |----|
口口口口 |----|
口口口口 |----|

不確定度: 0

最終更新:2016年04月25日 03:33