twinkle noise
ZUKI

EXTREME

Level: 9
BPM: 140
Notes: 707

1
口口口口 |----|
口口口口 |----|
口口口口 |----|
口口口口 |----|
2
⑦口口⑥ |①--②|
口③④⑤ |③-④-|
口②口口 |-⑤⑥-|
口口①口 |⑦---|
3
口口口③ |①--②|
口口口口 |--③-|
口口口口 |----|
②口口① |----|
4
⑦口口⑥ |①--②|
口③④⑤ |③-④-|
口②口口 |-⑤⑥-|
口口①口 |⑦---|
5
口③②口 |①②③④|
⑦⑩⑪⑥ |⑤⑥⑦⑧|
⑨⑤④⑫ |⑨⑩⑪⑫|
①口口⑧ |----|
6
⑩口口⑦ |①-②③|
①⑥⑨口 |④-⑤⑥|
口⑧⑤口 |-⑦-⑧|
口④③② |⑨-⑩-|
7
口口口⑨ |-①②③|
③⑥⑧② |④⑤-⑥|
⑤⑦口④ |-⑦-⑧|
口①口口 |⑨---|
8
⑫⑥①⑪ |①②③④|
②⑩⑮⑤ |⑤⑥⑦⑧|
⑭④⑦⑨ |⑨⑩⑪⑫|
⑧⑯⑬③ |⑬⑭⑮⑯|
9
口①①口 |①---|
②口口② |②---|
口③③口 |③---|
④口口④ |④---|
10
口②①口 |①-②-|
②口口① |③-④-|
口③③口
④口口④

⑤⑨⑨⑥
⑨⑤⑥⑨
⑦口口⑧ |⑤⑥⑦⑧|
口⑦⑧口 |⑨---|
11
③口口⑦ |①-②③|
口②⑥口 |--④-|
④口口⑧ |⑤-⑥⑦|
①口口⑤ |--⑧-|
12
③口口⑦ |①-②③|
口②⑥口 |--④-|
④口口⑧ |⑤-⑥⑦|
①口口⑤ |--⑧-|
13
③口口⑦ |①-②③|
口②⑥口 |--④-|
④口口⑧ |⑤-⑥⑦|
①口口⑤ |--⑧-|
14
口③口口 |①②③④|
⑤口⑧② |⑤⑥⑦⑧|
①⑦④口
口口口⑥

⑨⑮口⑫
口口口口
⑪口⑯⑭ |⑨⑩⑪⑫|
口⑬⑩口 |⑬⑭⑮⑯|
15
③口口⑦ |①-②③|
口②⑥口 |--④-|
④口口⑧ |⑤-⑥⑦|
①口口⑤ |--⑧-|
16
③口口⑦ |①-②③|
口②⑥口 |--④-|
④口口⑧ |⑤-⑥⑦|
①口口⑤ |--⑧-|
17
③口口⑦ |①-②③|
口②⑥口 |--④-|
④口口⑧ |⑤-⑥⑦|
①口口⑤ |--⑧-|
18
口⑤口口 |①②③④|
口①⑥④ |⑤⑥⑦⑧|
口⑦②口
③口⑧口

⑨口口⑫
⑨口口⑫
⑪口口⑩ |⑨-⑩-|
⑪口口⑩ |⑪-⑫-|
19
口口口口 |①②③-|
口①②口 |④⑤⑥⑦|
口③口口
⑦⑥⑤④

⑨口⑪口
口⑫口口
⑩口⑬⑧ |⑧-⑨⑩|
口口口口 |-⑪⑫⑬|
20
口口口口 |-①②③|
口口④口 |④⑤--|
口⑤口口
口③②①

口⑦⑥口
⑪口口⑩
⑨口口⑧ |⑥⑦⑧⑨|
口口口⑫ |⑩⑪⑫-|
21
⑦⑥⑤④ |①②③-|
口③口口 |④⑤⑥⑦|
口①②口
口口口口

口口口口
⑨口⑪⑧
口⑫口口 |⑧-⑨⑩|
⑩口⑬口 |-⑪⑫⑬|
22
⑤口④口 |①②③④|
口③口⑥ |⑤⑥⑦⑧|
⑦口②口
口①口⑧

⑮口口⑫
⑪口口口
口口⑭⑩ |⑨⑩⑪⑫|
⑨⑬口口 |⑬⑭⑮-|
23
口口口口 |①②③-|
口①②口 |④⑤⑥⑦|
口③口口
⑦⑥⑤④

⑨口⑪口
口⑫口口
⑩口⑬⑧ |⑧-⑨⑩|
口口口口 |-⑪⑫⑬|
24
口口口口 |-①②③|
口口④口 |④⑤--|
口⑤口口
口③②①

口⑦⑥口
⑪口口⑩
⑨口口⑧ |⑥⑦⑧⑨|
口口口⑫ |⑩⑪⑫-|
25
⑦⑥⑤④ |①②③-|
口①口口 |④⑤⑥⑦|
口③②口
口口口口

口口口口
⑨口⑪⑧
口⑫口口 |⑧-⑨⑩|
⑩口⑬口 |-⑪⑫⑬|
26
口③①口 |①-②-|
⑨口口⑨ |③-④-|
④⑨⑨② |⑤⑥⑦⑧|
⑤⑦⑥⑧ |⑨---|
27
⑤口口③ |----|
口口口② |①-②-|
口口口① |③---|
④口口口 |④-⑤-|
28
口口口① |--①-|
口口口口 |--②-|
口口口口 |----|
口口口② |----|
29
③口口口 |----|
②口口口 |①-②-|
①口口口 |③---|
⑤口口④ |④-⑤-|
30
①口口② |--①-|
口口口口 |--②-|
口口口口 |----|
口口口口 |----|
31
①①①① |①---|
口③④口 |--②-|
口④③口 |----|
②②②② |③-④-|
32
⑥⑥⑥⑥ |--①-|
①④④① |②-③-|
②⑤⑤② |④-⑤-|
③口口③ |⑥---|
33
⑯⑮⑭⑬ |----|
⑫⑪⑩⑨ |①②③④|
⑧④⑤① |⑤⑥⑦⑧|
②⑥③⑦ |⑨⑩⑪⑫⑬⑭⑮⑯|
34
⑤口口口 |①---|
③③③口 |②---|
口②②口 |③---|
口口①④ |④-⑤-|
35
口⑤①③ |①-②③|
⑤口③① |-④-⑤|
口口口口
②口④口

⑧口⑧口
口口口⑥
⑦口口口 |--⑥-|
口口口口 |⑦-⑧-|
36
口③⑥③ |①--②|
③口③⑥ |--③-|
口②⑤② |-④⑤-|
①口①④ |⑥---|
37
口①口② |①-②③|
①④口⑤ |-④-⑤|
③口口⑤
口③口口

⑥⑧口⑧
口口口口
口口⑦口 |--⑥-|
口口口口 |⑦-⑧-|
38
口口⑤④ |①--②|
①口①口 |--③-|
口②口② |--④-|
③口③口 |⑤---|
39
口口口⑤ |①-②③|
口口③口 |-④-⑤|
②口④①
⑤口①③

口⑥口口
⑥口口口
口口口口 |----|
口⑦⑧口 |⑥-⑦⑧|
40
口口②口 |-①-②|
口口口② |----|
口口①口
口口口①

⑥口口③
口⑥④口
口⑤⑥口 |③-④-|
口口口⑥ |⑤-⑥-|
41
口②口① |--①②|
④口③口 |③④⑤⑥|
口⑥口⑤
口口口口

⑭⑬⑫⑪
口口口⑮
口口⑮口 |⑦⑧⑨⑩|
⑧⑩⑦⑨ |⑪⑫⑬⑭⑮---|
42
口口③② |--①-|
口口②口 |--②-|
口口口① |--③-|
口口①③ |----|
43
③①口口 |①-②③|
①③口⑤ |-④-⑤|
⑤口口②
④口口口

口口口口
⑧口⑧口
口⑦口口 |--⑥-|
口⑥口口 |⑦-⑧-|
44
①口口① |①--②|
口③⑥③ |--③-|
③④③⑥ |-④⑤-|
②口⑤② |⑥---|
45
⑤口口② |①-②③|
④口口口 |-④-⑤|
①③口口
③①口⑤

口口⑧⑧
口⑥口口
口口⑦口 |--⑥-|
⑧⑧口口 |⑦-⑧-|
46
③③⑤④ |①--②|
②口口① |--③-|
①口口② |--④-|
口口③③ |⑤---|
47
口④口口 |①-②③|
③①口② |-④-⑤|
口③口口
①⑤口⑤

口口⑧⑥
口口⑥⑧
口口口口 |----|
⑦口口口 |⑥-⑦⑧|
48
口②口口 |-①-②|
②①口口 |----|
口口①②
口口②口

④⑥⑥④
口⑥⑥口
口⑤⑤口 |③-④-|
③口口③ |⑤-⑥-|
49
口口⑦口 |--①②|
⑥⑧⑫⑤ |③④⑤⑥|
④口⑨③ |-⑦⑧⑨|
②⑩⑪① |⑩⑪-⑫|
50
口口口口 |----|
口口口口 |----|
口口口口 |----|
口口口口 |----|
51
口口⑦⑤ |①-②③|
口口口④ |-④-⑤|
口③②口 |--⑥-|
口⑥口① |⑦---|
52
口④⑤口 |--①-|
口③口口 |②-③-|
④①②⑤ |④---|
口口口口 |⑤---|
53
口口⑦⑤ |①-②③|
口口口④ |-④-⑤|
口③②口 |--⑥-|
口⑥口① |⑦---|
54
口④⑤口 |--①-|
口③口口 |②-③-|
④①②⑤ |④---|
口口口口 |⑤---|
55
⑨⑨口⑥ |①-②③|
⑦口口⑤ |④⑤-⑥|
④③②口 |⑦-⑧-|
①口⑧① |⑨---|
56
口⑤⑥口 |①-②-|
⑥④口⑤ |③-④-|
⑤②③⑥ |⑤---|
①⑥⑤口 |⑥---|
57
⑨⑨口⑥ |①-②③|
⑦口⑩⑤ |④⑤-⑥|
④③②口 |⑦-⑧-|
①口⑧① |⑨--⑩|
58
口口口口 |①-②-|
⑦⑧口口 |③-④-|
口①⑥⑤ |⑤-⑥-|
口②③④ |⑦-⑧-|
59
③①口④ |①-②③|
口口⑥⑥ |④⑤-⑥|
⑤⑤口②
口口口口

口口⑦口
口⑩口口
口口⑨⑨ |⑦-⑧-|
⑧⑧⑩口 |⑨-⑩-|
60
③①④① |①--②|
⑤⑥⑦④ |③-④-|
②口口口 |⑤⑥⑦-|
⑧⑧口⑨ |⑧-⑨-|
61
④口①③ |①-②③|
⑥⑥口口 |④⑤-⑥|
②口⑤⑤
口口口口

⑩⑦⑩口
口口口口
⑨⑨口口 |⑦-⑧-|
口口⑧⑧ |⑨-⑩-|
62
口④口③ |①--②|
④⑦⑥⑤ |③-④-|
口口①② |⑤⑥⑦-|
⑨①⑧⑧ |⑧-⑨-|
63
③①口④ |①-②③|
口口⑥⑥ |④⑤-⑥|
⑤⑤口②
口口口口

⑪⑨⑦口
口口口口
口口口⑩ |⑦-⑧-|
口口口⑧ |⑨-⑩⑪|
64
口口④① |①②-③|
口口③③ |④-⑤-|
②②口口
口口口⑤

⑨⑦口⑨
⑦⑨⑨口
口⑧⑧⑥ |⑥-⑦-|
口口⑥口 |⑧-⑨-|
65
口口⑦口 |--①②|
⑥⑧⑫⑤ |③④⑤⑥|
④口⑨③ |-⑦⑧⑨|
②⑩⑪① |⑩⑪-⑫|
66
②⑫⑪① |①-②-|
口⑩⑨口 |③-④-|
口⑧⑦口 |⑤⑥⑦⑧|
④⑥⑤③ |⑨⑩⑪⑫|
67
⑤⑧口口 |①-②③|
口口⑥④ |-④-⑤|
口⑦口① |--⑥-|
口③②口 |⑦-⑧-|
68
口口③① |①--②|
口口口② |--③-|
口口口口 |----|
口口口口 |----|

不確定度: 0

最終更新:2016年04月25日 03:32