Rock The Club
Expander

EXTREME

Level: 10
BPM: 260
Notes: 919

實際BPM: 130
1
口口口口 |----|
口口口口 |----|
口口口口 |----|
口口口口 |----|
2
口口口口 |①---|
口⑤④口 |②③④⑤|
口③②口
①口口①

⑧口⑥口
⑦口口口
口口口⑨ |⑥-⑦⑧|
口口口⑩ |-⑨-⑩|
3
口⑤口⑦ |----|
口③④⑥ |①②③④|
⑧①②口 |⑤-⑥⑦|
⑨口口口 |-⑧-⑨|
4
⑦口⑤口 |----|
⑥④③口 |①②③④|
口②①⑧ |⑤-⑥⑦|
口口口⑨ |-⑧-⑨|
5
口口口口 |---①②③|
口④口⑤ |-④-⑤|
①②③口
口口口口

口⑨⑨⑥
口口口口
⑧口口口 |⑥-⑦⑧|
⑦⑩⑩口 |-⑨-⑩|
6
①口⑥⑧ |①---|
②⑤④⑦ |②③④⑤|
⑥③②⑩ |⑥-⑦⑧|
⑨口口⑪ |⑨⑩-⑪|
7
①口⑥⑧ |①---|
②⑤④⑦ |②③④⑤|
⑥③②⑩ |⑥-⑦⑧|
⑨口口⑪ |⑨⑩-⑪|
8
①口口⑧ |①---|
②③②⑦ |②③④⑤|
⑥⑤④⑩ |⑥-⑦⑧|
⑨口⑥⑪ |⑨⑩-⑪|
9
①口⑥口 |①--②③④|
⑤口②⑦ |⑤⑥-⑦|
口口③口
口口④口

口口口⑧
口口⑫口
⑧口口⑩ |⑧-⑨⑩|
⑪口⑬⑨ |⑪⑫-⑬|
10
①口②口 |①---|
②口口口 |②---|
口①口②
口②口口

口③口口
口口④③
③⑤口口 |③-④⑤|
⑥口③⑥ |--⑥-|
11
⑥②①③ |--①-|
①③④② |②---|
②⑤③① |③-④⑤|
③①②⑥ |--⑥-|
12
口②①口 |①---|
②②口① |----|
①口②② |②---|
口①②口 |----|
13
⑥⑦⑧⑨ |①--②--③-④-⑤-|
⑤口口⑩ |⑥⑦⑧⑨⑩⑪|
④①②⑪
③口口口

口口口口
口⑯⑰口
⑱⑮⑱口 |⑫⑬⑭⑮⑯⑰|
口⑭⑬⑫ |⑱---|
14
①③口① |①--②|
③口口口 |③---|
口口口口
口口口②

口口⑤口
⑦⑥口口
口口⑤④ |④-⑤-|
口⑥口口 |⑥-⑦-|
15
①④③① |①--②|
口口口③ |③-④-|
口口口口
②口口口

口口口口
口口口口
⑧⑦⑥⑤ |⑤⑥⑦⑧|
⑫⑪⑩⑨ |⑨⑩⑪⑫|
16
③④①② |①-②-|
口口②① |③-④-|
④③口口
口口口口

口口⑦口
口口口⑦
口⑧⑧口 |⑤--⑥|
⑥⑤⑤口 |⑦-⑧-|
17
①③⑦① |①--②|
③⑧⑧⑦ |③-④-|
口⑤⑤口 |⑤--⑥|
⑥④④② |⑦-⑧-|
18
②③口口 |①-②-|
口口口口 |③---|
③②口口
口①①口

⑨口口⑧
⑤⑦⑥④
⑨口口⑧ |④⑤⑥⑦|
口口口口 |⑧-⑨-|
19
口口③口 |①--②|
口④④③ |③-④-|
口口口口
②①①口

口口口口
口口口口
⑧⑦⑥⑤ |⑤⑥⑦⑧|
⑫⑪⑩⑨ |⑨⑩⑪⑫|
20
口④①口 |-①-②|
④口③① |③-④-|
口②口口
口口口口

口口⑫⑪
口口⑩⑨
口口⑧⑦ |⑤⑥⑦⑧|
口口⑥⑤ |⑨⑩⑪⑫|
21
口③⑥⑤ |①--②|
③口⑧⑦ |③-④-|
⑨④④⑨ |⑤⑥⑦⑧|
①口口② |⑨---|
22
④③口口 |①--②|
③④口口 |③-④-|
口口口口
口①①②

口口⑥口
⑧口口⑤
⑧口口⑤ |⑤-⑥-|
口⑦口口 |⑦-⑧-|
23
口口③口 |①--②|
口④④③ |③-④-|
口①①口
②口口口

口口口口
口口口口
⑤⑥⑦⑧ |⑤⑥⑦⑧|
⑨⑩⑪⑫ |⑨⑩⑪⑫|
24
②①③④ |①-②-|
①②口口 |③-④-|
口口④③
口口口口

口⑦口口
⑦⑧⑧口
口口口口 |⑤--⑥|
口⑤⑤⑥ |⑦-⑧-|
25
⑧⑦③口 |①--②|
⑦⑧口③ |③-④-|
⑤①①⑤ |⑤--⑥|
②④④⑥ |⑦-⑧-|
26
口口口③ |①-②-|
口口③口 |③---|
口①②口
①②口口

口⑥口⑦
⑥⑦口口
④口口④ |④--⑤|
口口口⑤ |⑥-⑦-|
27
④口③口 |①--②|
口口④③ |③-④-|
口口口口
②①①口

口口口口
口口口口
⑤⑥⑦⑧ |⑤⑥⑦⑧|
⑨⑩⑪⑫ |⑨⑩⑪⑫|
28
①③口④ |①--②|
③④口口 |③-④-|
口口②口
口口口口

⑧口⑦口
口口⑧⑦
口口口口 |⑤--⑥|
⑥⑤⑤口 |⑦-⑧-|
29
⑥⑦⑤口 |①②③④|
⑧⑨口⑤ |--⑤-|
⑩②①⑩ |⑥⑦⑧⑨|
⑪④③口 |⑩-⑪-|
30
⑦⑧⑨⑩ |①-②-③-|
⑥⑤口口 |④-⑤-⑥-|
口④③⑩ |⑦-⑧-⑨-|
口口②① |⑩---|
31
口口口口 |①-②-|
口①①口 |③④⑤⑥|
⑤⑥口口
③④口②

口⑦⑨⑧
⑦口⑪⑩
口口口口 |--⑦-|
口口口口 |⑧⑨⑩⑪|
32
②口口口 |①-②-|
口②口口 |③-④⑤|
口口③①
口④⑤③

⑧口口⑧
⑥口⑦口
口⑥口⑦ |⑥-⑦-|
⑨口口⑨ |⑧-⑨-|
33
口口口口 |①-②-|
②⑧⑦① |③④⑤⑥⑦⑧|
口⑥⑤口
口④③口

⑭口⑨⑫
⑬口口⑪
口口口口 |⑨-⑩-|
⑩口口⑩ |⑪⑫⑬⑭|
34
口③③口 |①-②-|
口②①口 |③-④⑤|
②口口①
口⑤④口

⑦口口⑥
口⑨⑧口
口⑦⑥口 |⑥-⑦-|
⑨口口⑧ |⑧-⑨-|
35
口口口口 |①-②-|
②⑦口① |③④⑤⑥-⑦|
②⑥⑤①
口④③口

口⑧⑧口
口口口口
口口口口 |--⑧-|
⑫⑪⑩⑨ |⑨⑩⑪⑫|
36
①口口② |①-②-|
③口②口 |③-④⑤|
①③口口
口⑤④口

⑧口口⑧
口⑦口⑥
⑦口⑥口 |⑥-⑦-|
口口口口 |⑧---|
37
口口口口 |①-②-|
②⑧⑦② |③④⑤⑥⑦⑧|
口⑥⑤口
①④③①

⑫口⑨⑭
⑪口口⑬
口口口口 |⑨-⑩-|
⑩口口⑩ |⑪⑫⑬⑭|
38
⑥③③⑦ |①-②-|
⑧口②⑨ |③-④⑤|
①⑥⑦② |⑥-⑦-|
⑧④⑤⑨ |⑧-⑨-|
39
口①①口 |①---|
口②②口 |②--③|
口④④③ |④-⑤-|
⑤⑥⑥口 |⑥---|
40
②口③① |①-②③-④|
口④①⑤ |⑤-⑥⑦-⑧|
⑥口口⑦
口⑧⑦口

口⑩⑮⑬
⑫口⑬口
口⑭⑨口 |⑨-⑩⑪-⑫|
⑯口口⑪ |⑬-⑭⑮-⑯|
41
②口口⑤ |①-②--③|
口④⑤① |--④⑤-⑥|
⑥口口③
口口口③

口口⑦口
口口口⑫
口⑨⑨口 |⑦-⑧--⑨|
⑩⑧⑧⑪ |--⑩⑪-⑫|
42
①③口② |①-②③-④|
⑤①④口 |⑤-⑥⑦-⑧|
⑦口口⑥
口⑦⑧口

⑬⑮⑩口
口⑬口⑫
口⑨⑭口 |⑨-⑩⑪-⑫|
⑪口口⑯ |⑬-⑭⑮-⑯|
43
⑤口口② |①-②--③|
①⑤④口 |--④⑤-⑥|
③口口⑥
③口口口

口⑦口口
⑫口口⑧
口口口口 |⑦-⑧--⑨|
⑪⑨⑨⑩ |--⑩⑪-⑫|
44
②口③① |①-②③-④|
口④⑤⑦ |⑤-⑥⑦-⑧|
⑥口①口
口⑧⑦口

口⑩⑮⑬
⑫口口口
口⑭⑬⑨ |⑨-⑩⑪-⑫|
⑯口口⑪ |⑬-⑭⑮-⑯|
45
口④⑤口 |①-②--③|
口②①③ |----|
⑥口口⑥ |④-⑤--⑥|
口⑥⑥③ |----|
46
①③口② |①-②③-④|
⑦⑤④口 |⑤-⑥⑦-⑧|
口①口⑥
口⑦⑧口

⑬⑮⑩口
口口口⑫
⑨⑬⑭口 |⑨-⑩⑪-⑫|
⑪口口⑯ |⑬-⑭⑮-⑯|
47
⑤⑦④口 |①-②--③|
③①②⑥ |--④⑤-⑥|
③⑤⑧口 |⑦-⑧--⑨|
⑨口口⑨ |----|
48
口口口口 |①----②|
口④口口 |③-④-|
口③②口
口①①口

口⑤⑦⑦
口口⑦⑦
⑥口口口 |⑤-⑥-|
⑥⑥口口 |⑦---|
49
①口口口 |①-②-|
口①口口 |③-④⑤-⑥|
⑥④②口
③⑤口②

⑦口⑩⑧
口⑦⑨⑪
口口口口 |--⑦-|
口口口口 |⑧-⑨⑩-⑪|
50
③①口④ |①-②-|
①⑤口口 |③--④-⑤|
口③④②
口口②口

口⑧⑧口
⑦口⑥口
⑨口口⑨ |⑥-⑦-|
口⑦口⑥ |⑧-⑨-|
51
②口口① |①-②-|
口⑧⑦口 |③④⑤⑥⑦⑧|
口⑥⑤口
口④③口

⑭口⑨⑫
口口口口
⑪口口⑬ |⑨-⑩-|
⑩口口⑩ |⑪-⑫⑬-⑭|
52
口①②口 |①-②-|
①③④② |③--④-⑤|
口⑤口口
③口口④

口⑦口⑥
⑧口口⑧
⑦口⑥口 |⑥-⑦-|
口⑨⑨口 |⑧-⑨-|
53
口⑦口口 |①-②-|
口⑥⑤口 |③④⑤⑥-⑦|
口④③口
②口口①

口口⑧口
口口口⑧
口口口口 |--⑧-|
⑨⑪⑩⑫ |⑨-⑩⑪-⑫|
54
①③口② |①-②-|
口⑤④口 |③--④-⑤|
③①②口
口口口口

⑧口⑥⑧
口口口口
口口口⑥ |⑥-⑦-|
⑨⑦⑦⑨ |⑧-⑨-|
55
口口口口 |①-②-|
②⑧⑦① |③④⑤⑥⑦⑧|
口⑥⑤口
口④③口

⑫口⑨⑭
⑪口口⑬
口口口口 |⑨-⑩-|
⑩口口⑩ |⑪-⑫⑬-⑭|
56
口①②口 |①-②-|
口口口口 |③--④-⑤|
①③口②
③⑤④口

口⑦⑧口
⑦⑨⑨口
口口⑥⑧ |⑥-⑦-|
口口口⑥ |⑧-⑨-|
57
⑥⑦⑧⑨ |①--②--③-④-⑤-|
⑤口口⑩ |⑥⑦⑧⑨⑩⑪|
④①②⑪
③口口口

口口口口
口⑯⑰口
⑱⑮⑱口 |⑫⑬⑭⑮⑯⑰|
口⑭⑬⑫ |⑱---|
58
①口②① |①-②-|
口口口口 |③-④⑤-⑥|
口口口口
⑥④⑤③

⑩⑨口口
⑨⑩口口
口口⑧⑦ |⑦--⑧-⑨|
口口口⑪ |--⑩⑪--|
59
⑤④口③ |①-②-|
口⑧⑦⑥ |③-④⑤|
②①⑩⑨ |⑥⑦⑧-|
②①⑨⑩ |⑨-⑩-|
60
①②口① |①-②-|
口⑥⑤④ |③-④⑤⑥---|
口口口口
③口口口

口口口口
⑨口口口
口⑩⑦口 |--⑦⑧--|
⑪⑧口口 |⑨-⑩⑪--|
61
口⑤口④ |①-②-|
⑤口口③ |③--④⑤-|
口口口②
口口口①

口口口口
口口口口
⑧口口⑧ |--⑥⑦--|
口⑦⑥口 |⑧---|
62
①②口① |①-②-|
②口口口 |③-④⑤-⑥|
口口口口
③⑤④⑥

口口⑧⑩
口⑦⑩⑧
⑦⑨口口 |⑦--⑧⑨-|
⑪口口口 |--⑩⑪--|
63
③口④⑤ |①-②-|
⑥⑦⑧口 |③-④⑤|
⑨⑩①② |⑥⑦⑧-|
⑩⑨①② |⑨-⑩-|
64
①口②① |①-②-|
④⑤⑥口 |③-④⑤⑥---|
口口③口
口口口③

⑦口口口
口口口⑨
口⑦⑩⑧ |--⑦⑧--|
口口⑧⑪ |⑨-⑩⑪--|
65
⑤口口④ |①-②-|
③口口口 |③-④⑤--|
②口口口
①口口口

口口口口
口⑨⑨口
⑧口口⑧ |⑥-⑦-|
口⑥⑦口 |⑧-⑨-|
66
①口②① |①----②|
③口口口 |③-④---|
④口口口
口口口口

⑪⑤⑪口
口⑥口口
⑪⑦⑪⑩ |⑤⑥⑦⑧--|
口⑧口⑨ |⑨--⑩-⑪|

不確定度: 0

最終更新:2016年04月25日 03:38