日天悦扇紊舞
Akhuta

EXTREME

Level: 9
BPM: 192
Notes: 749

1
口口口口 |----|
口口口口 |----|
口口口口 |----|
口口口口
2
①口口② |①---|
口口口口 |----|
口口口口 |②---|
口口口口
3
口口口口 |①-②-|
口②④口 |--③-|
口①③口 |④---|
口口口口
4
①口口口 |①---|
口口口口 |----|
口口口口 |----|
口口口口
5
口口口口 |①---|
口口口口 |----|
口口口口 |②---|
②口口①
6
口口口口 |①-②-|
口④②口 |--③-|
口③①口 |④---|
口口口口
7
口口口① |①---|
口口口口 |----|
口口口口 |----|
口口口口
8
口口口口 |①---|
口口口口 |--②-|
口口口口 |③---|
①②口③
9
口口口口 |①-②-|
口②④口 |--③-|
口①③口 |④---|
口口口口
10
口口口口 |①---|
口口口口 |----|
口口口口 |----|
①口口口
11
③口②① |①---|
口口口口 |--②-|
口口口口 |③---|
口口口口
12
口口口口 |①-②-|
口④②口 |--③-|
口③①口 |④---|
口口口口
13
口口口① |①---|
口口口口 |----|
口口口口 |----|
口口口口
14
口口口口 |----|
口口口口 |----|
口口口口 |----|
口口口口
15
①①口口 |①--②|
口口④口 |--③-|
口⑤口口 |④-⑤-|
③口口②
16
口口④③ |-①②-|
⑤⑥口口 |③--④|
口口口口 |--⑤⑥|
口②①口
17
口口口口 |①-②-|
口口①口 |--③④|
口⑤④③ |⑤---|
口⑤口②
18
⑤口口① |①--②|
口②③口 |③-④-|
口口口口 |⑤-⑥-|
④口口⑥
19
口口口③ |-①②-|
口④⑤口 |③--④|
口①②口 |⑤-⑥-|
⑥口口口
20
⑥⑥口口 |①-②-|
③口口① |③④⑤-|
口④口② |⑥---|
口口⑤口
21
口口口① |①---|
口口口口 |--②-|
口口口口 |----|
口口口②
22
口口②口 |①---|
口口口口 |--②-|
口口口口 |----|
口口①口
23
口①口口 |①---|
口口口口 |--②-|
口口口口 |----|
口②口口
24
①口口口 |①---|
口口口口 |--②-|
口口口口 |----|
②口口口
25
口②口口 |①---|
口口口口 |--②-|
口口口口 |----|
口①口口
26
口口①口 |①---|
口③口口 |--②-|
口口④口 |--③④|
口口②口
27
⑨口⑧② |①②③④|
⑤口④⑫ |⑤⑥⑦⑧|
⑪③口⑥ |⑨⑩⑪⑫|
①⑦口⑩
28
口①⑦④ |①-②-|
⑦①④口 |③-④-|
口⑥③口 |⑤-⑥-|
口⑤②⑧ |⑦-⑧-|
29
口⑥口⑤ |①-②-|
⑧②⑦② |③-④-|
④⑩⑨① |⑤⑥⑦⑧|
③⑫⑪口 |⑨⑩⑪⑫|
30
⑦⑦①④ |①-②-|
口④口① |③-④-|
③口口⑥ |⑤-⑥-|
②⑧口⑤ |⑦-⑧-|
31
口⑧②⑤ |①-②-|
②⑫⑨口 |③-④-|
⑥①④⑦ |⑤⑥⑦⑧|
⑩口③⑪ |⑨⑩⑪⑫|
32
④⑦①口 |①-②-|
④口⑦① |③-④-|
口③⑥口 |⑤-⑥-|
⑧②⑤口 |⑦-⑧-|
33
口⑫⑪② |①-②-|
口⑩⑨② |③-④-|
①⑧⑦④ |⑤⑥⑦⑧|
口⑥⑤③ |⑨⑩⑪⑫|
34
⑥⑧口① |①-②-|
⑤⑧口① |③-④-|
③口⑦④ |⑤-⑥-|
②口⑦④ |⑦-⑧-|
35
⑤口①④ |①-②-|
⑥口④① |③-④-|
口②口口 |⑤-⑥-|
⑦③口⑦ |⑦---|
36
口①①口 |①---|
④⑤③② |②-③-|
口①①口 |--④-|
口口口口 |⑤---|
37
口口口口 |①-②-|
口口口口 |--③-|
③④②① |④---|
口⑤⑤口 |⑤---|
38
④①①④ |①---|
口口②口 |--②-|
口③口口 |③---|
口口口口 |④---|
39
口口④口 |①---|
口③口口 |②-③-|
口口②口 |④---|
①口口① |----|
40
⑥②口口 |①---|
口口③口 |②-③-|
口④口口 |④---|
①⑤⑤① |⑤-⑥-|
41
口④④口 |①-②-|
口口口③ |③---|
②口口口 |④---|
口口口① |----|
42
①口⑤① |①---|
口口④⑤ |②-③-|
口口③口 |④---|
口口②口 |⑤---|
43
④①口② |①---|
①④口口 |②-③-|
口口口口 |④---|
③口口口 |----|
44
⑥④①③ |①---|
④⑥③① |②-③-|
口口口口 |④---|
②口口⑤ |⑤-⑥-|
45
⑤⑤⑤⑤ |①-②-|
口口口口 |③---|
口③②① |④---|
口④④口 |⑤---|
46
口口口口 |①---|
①①⑥② |②-③-|
口口③⑤ |④-⑤-|
④④口口 |⑥---|
47
①①②⑥ |①-②-|
口③口④ |③-④-|
⑤⑤⑥口 |⑤---|
口口口口 |⑥---|
48
④④口⑤ |①---|
口口⑥口 |②-③-|
口⑦口③ |④-⑤-|
①①②口 |⑥-⑦-|
49
口口口口 |①-②-|
口③口⑥ |③-④-|
口口②④ |⑤---|
⑤⑤⑥① |⑥---|
50
口①口口 |①---|
④口③口 |②-③-|
①口⑥② |④-⑤-|
口④口⑤ |⑥---|
51
①⑤口⑥ |①-②-|
口口口口 |③-④-|
⑤①⑥④ |⑤---|
③口②口 |⑥---|
52
口④口口 |①---|
①口③⑤ |②-③-|
④⑦口② |④-⑤-|
口①⑥口 |⑥-⑦-|
53
⑥⑥⑥⑥ |①-②-|
口口口⑤ |③-④-|
④口口③ |⑤---|
②口口① |⑥---|
54
口口口口 |①-②-|
⑧⑤②④ |③-④-|
③⑦①⑥ |⑤-⑥-|
口口口口 |⑦-⑧-|
55
②②口口 |①-②-|
⑧⑤①③ |③-④-|
④⑦②⑥ |⑤-⑥-|
③③口口 |⑦-⑧-|
56
口口⑥⑥ |①-②-|
⑦⑤①③ |③-④-|
④⑥②⑧ |⑤-⑥-|
口口⑦⑦ |⑦-⑧-|
57
口口口口 |①-②-|
⑥⑤①② |③-④-|
③口④⑦ |⑤-⑥-|
口口口口 |⑦---|
58
③⑨⑤④ |①-②-|
口口口⑥ |③-④⑤|
⑧②口口 |⑥-⑦-|
①⑦口口 |⑧-⑨-|
59
④口口口 |①②③-|
⑦⑤口口 |④-⑤-|
口⑨②① |⑥-⑦-|
⑥⑧口③ |⑧-⑨-|
60
④⑥②① |①②③-|
⑦口口③ |④-⑤-|
⑤⑨口口 |⑥-⑦-|
口⑧口口 |⑧-⑨-|
61
⑤口口口 |①②③-|
口⑥口口 |④-⑤-|
⑦⑧②① |⑥-⑦-|
④口口③ |⑧---|
62
口口②② |①---|
⑤口口口 |②---|
口口口口 |③---|
④①①③ |④-⑤-|
63
口①口② |--①-|
口口口口 |②---|
口口口口 |③---|
④口口③ |④---|
64
口②①④ |①---|
口口④③ |②---|
②⑤口① |③-④-|
⑤口口口 |--⑤-|
65
①口口口 |①---|
②口口口 |②-③-|
③口④口 |--④-|
口⑤口⑤ |⑤---|
66
口口口① |①---|
口口①② |--②-|
口口口② |----|
③口③口 |③---|
67
①口口③ |①---|
②①口口 |--②-|
②口口口 |----|
口口口口 |③---|
68
口口口口 |①---|
③③③口 |--②-|
②②口口 |----|
①口口口 |③---|
69
①①①① |①---|
口口口口 |--②-|
口口口口 |----|
口口口② |----|
70
口③①口 |①---|
口②⑤口 |②-③-|
③口④① |--④-|
口口口⑤ |⑤---|
71
⑤⑤⑤⑤ |①-②-|
③②口③ |--③-|
口①口口 |④---|
②④④口 |⑤---|
72
口口口口 |①---|
口①①口 |--②-|
口②③① |③---|
④④口口 |④---|
73
口⑤口口 |①-②-|
①②①口 |③-④-|
⑤③④③ |⑤---|
口口⑥⑥ |⑥---|
74
②⑩①① |①-②③|
⑤③④④ |④-⑤⑥|
口⑥⑦⑦ |⑦-⑧-|
⑧口口⑨ |⑨-⑩-|
75
口口①口 |①-②-|
⑤②⑤口 |③-④-|
口⑤口⑤ |⑤---|
口④③口 |----|
76
口①⑤① |①---|
口口②⑤ |--②③|
①③①口 |④---|
口口④口 |⑤---|
77
⑦⑥口⑦ |①-②-|
口⑤④口 |③-④-|
口口③② |⑤-⑥-|
口口口① |⑦---|
78
⑧口①⑦ |①-②-|
②口⑦⑤ |③-④-|
④⑥③① |⑤-⑥-|
口④口口 |⑦-⑧-|
79
⑦⑦⑦⑦ |①-②-|
②口口⑤ |③-④-|
⑥口③⑤ |⑤-⑥-|
②④口① |⑦---|
80
口口口口 |①---|
①①①口 |--②-|
口③②④ |③---|
口口④口 |④---|
81
口⑤①口 |①-②-|
⑤②口③ |③-④-|
①口④⑥ |⑤---|
口③⑥口 |⑥---|
82
⑧口①① |①-②③|
口②⑦⑤ |④-⑤⑥|
④④⑦⑨ |⑦-⑧-|
⑥⑩口③ |⑨-⑩-|
83
口①②① |①-②-|
口③④③ |③-④-|
口⑤⑤口 |⑤---|
⑤口口⑤ |----|
84
①口①口 |①-②-|
②④口④ |③-④-|
③⑦口⑤ |⑤-⑥-|
口口⑧⑥ |⑦-⑧-|
85
④③②① |①-②-|
⑤⑥⑦口 |③-④-|
口⑧口⑧ |⑤⑥⑦-|
⑧口⑧口 |⑧---|
86
⑦③⑤① |①-②-|
口口口口 |③-④-|
口口口口 |⑤-⑥-|
⑧④⑥② |⑦-⑧-|
87
⑥⑥⑥⑥ |①-②-|
③口口① |③-④-|
④③①② |⑤---|
口⑤⑤口 |⑥---|
88
口口口口 |①---|
口口口口 |----|
口口口② |②---|
口口口① |----|
89
口口口① |①---|
口口口② |----|
口口口口 |②---|
口口口口 |----|
90
口口口口 |①---|
口口口口 |----|
口口②口 |②---|
口口①口 |----|
91
⑦⑪①④ |①---|
口③⑧口 |--②③|
⑨口⑩⑥ |④⑤⑥⑦|
口⑤②口 |⑧⑨⑩⑪|
92
口口①口 |①---|
口③⑥① |②-③-|
口②⑤口 |④---|
口口④④ |⑤-⑥-|
93
②③④口 |①-②③|
口⑧⑨⑤ |④-⑤-|
⑥口口⑦ |⑥-⑦-|
①①口口 |⑧-⑨-|
94
口口口口 |①---|
③口口② |②-③-|
⑤④①⑥ |④---|
④口口① |⑤-⑥-|
95
①③口② |①-②③|
口①④口 |④-⑤⑥|
口⑦口口 |⑦---|
⑤口⑥口 |----|
96
⑩⑯①⑬ |①②③④|
②④⑨⑤ |⑤⑥⑦⑧|
⑭⑧⑮⑪ |⑨⑩⑪⑫|
⑥⑫⑦③ |⑬⑭⑮⑯|
97
⑦口①口 |①-②③|
③口⑥④ |④⑤⑥⑦|
口⑤口口 |⑧---|
口口⑧② |----|
98
⑬口⑫⑭ |①②③④|
⑨⑩⑧⑪ |⑤⑥⑦⑧|
⑤⑥④⑦ |⑨⑩⑪⑫|
①②口③ |⑬-⑭-|
99
⑧①口口 |①-②③|
⑤口⑥口 |④-⑤-|
口⑤口⑥ |⑥--⑦|
⑦④③② |--⑧-|
100
⑤②②口 |①---|
口①④① |②-③-|
①⑤①口 |--④-|
口③③④ |⑤---|
101
⑤⑤⑤⑤ |①-②-|
③②④① |--③-|
②口①口 |④---|
③口④口 |⑤---|

不確定度: 0

最終更新:2016年04月25日 03:44