blue moment
ソルラルBOB

ADVANCED

Level: 5
BPM: 149
Notes: 326

1
口口口口 |----|
口口口口 |----|
口口口口 |----|
口口口口 |----|
2
①②口口 |----|
口口口口 |----|
口口口口 |①---|
口口口口 |②---|
3
口口①口 |①---|
②口③口 |----|
口口口口 |②-③-|
④口⑤口 |④-⑤-|
4
口口口口 |----|
口②口① |----|
口口口口 |①-②-|
口④口③ |③-④-|
5
①口口① |----|
口②②口 |①---|
口③口口 |②---|
口口④口 |③-④-|
6
口口②① |----|
口口口口 |----|
口口口口 |①---|
口口口口 |②---|
7
口①口口 |①---|
口③口② |----|
口口口口 |②-③-|
口⑤口④ |④-⑤-|
8
口口口口 |----|
①口②口 |----|
口口口口 |①-②-|
③口④口 |③-④-|
9
①口口① |----|
口②②口 |①---|
口口③口 |②---|
口④口口 |③-④-|
10
口口口口 |----|
口口口口 |----|
口口口口 |①---|
口②①口 |②---|
11
①①①① |①---|
②③④⑤ |----|
口口口口 |②-③-|
口口口口 |④-⑤-|
12
口口口口 |----|
口口口口 |----|
④③②① |①-②-|
口口口口 |③-④-|
13
口④④口 |----|
口①①口 |①---|
口③③口 |②---|
②口口② |③-④-|
14
口口口口 |----|
口口口口 |----|
①口口② |①---|
①口口② |②---|
15
口①①口 |①---|
⑤④③② |----|
口口口口 |②-③-|
口口口口 |④-⑤-|
16
口口口口 |----|
口口口口 |----|
①②③④ |①-②-|
口口口口 |③-④-|
17
④④④④ |----|
口①①口 |①---|
口③③口 |②---|
②口口② |③-④-|
18
口口口口 |----|
口口口口 |----|
口②③口 |①---|
①口口① |②-③-|
19
口①①口 |①---|
口口口口 |----|
口口口口 |----|
口口口口 |----|
20
⑥口口⑥ |①-②-|
口①②口 |③-④-|
口③④口 |--⑤-|
⑤口口⑤ |--⑥-|
21
口①①口 |----|
②口口口 |--①-|
②口口口 |----|
口口口口 |②---|
22
⑤口口⑤ |①---|
口②口① |②-③-|
口③口① |--④-|
④口口④ |--⑤-|
23
口①①口 |----|
口口口口 |----|
口口口口 |--①-|
口口口口 |----|
24
⑥口口⑥ |①-②-|
口②①口 |③-④-|
口④③口 |--⑤-|
⑤口口⑤ |--⑥-|
25
口①①口 |----|
口口口② |--①-|
口口口② |----|
口口口口 |②---|
26
⑤口口⑤ |①---|
①口②口 |②-③-|
①口③口 |--④-|
④口口④ |--⑤-|
27
③口口③ |--①-|
口①①口 |--②-|
口②②口 |----|
口口口口 |③---|
28
口⑤⑤口 |①-②-|
⑥①②⑥ |③-④-|
口③④口 |--⑤-|
口口口口 |--⑥-|
29
③口口③ |--①-|
口口口口 |--②-|
①口口① |--③-|
口②②口 |----|
30
口口口口 |①---|
口③③口 |--②-|
①口口① |③---|
口②②口 |----|
31
口③③口 |①---|
①口口① |--②-|
口②②口 |③---|
口口口口 |----|
32
口口口⑥ |①-②-|
口②①口 |③-④-|
口④③口 |--⑤-|
⑤口口⑤ |--⑥-|
33
口口口口 |--①-|
口口①口 |--②-|
口②口口 |--③-|
③口口口 |----|
34
口口口口 |①-②-|
口①②口 |③-④-|
口③④口
口口口口

⑤口口口
口⑥口口
口口口口 |--⑤-|
口口口口 |--⑥-|
35
口口口口 |--①-|
口口口口 |--②-|
口口①口
口口口②

口口③③
④④口口
口口⑤⑤ |--③-|
口口口口 |④-⑤-|
36
口口口口 |①---|
口口口口 |----|
口口口口
①①口口

口口口口
口②②口
口③③口 |②--③|
口④④口 |--④-|
37
①①①① |①---|
②口口② |②---|
③口口③ |③---|
④口口④ |④---|
38
口①①口 |①---|
口口口口 |----|
口②②口 |②---|
③口口③ |③---|
39
①①①① |①---|
②口③口 |----|
口口口口 |②-③-|
④口⑤口 |④-⑤-|
40
④口口④ |----|
口①①口 |----|
口②②口 |①-②-|
口③③口 |③-④-|
41
④④④④ |----|
②口口① |①---|
②口口① |②---|
口③③口 |③-④-|
42
口口口口 |----|
口口①口 |----|
口②口口 |①---|
口口口口 |②---|
43
口口口口 |①---|
口③口② |----|
口口口口 |②-③-|
①⑤口④ |④-⑤-|
44
④口口④ |----|
口①①口 |----|
口②②口 |①-②-|
口③③口 |③-④-|
45
④④④④ |----|
①口口② |①---|
①口口② |②---|
口③③口 |③-④-|
46
口口口口 |----|
口口口口 |----|
②口口① |①---|
②口口① |②---|
47
口①①口 |①---|
②②③③ |----|
口口口口 |②-③-|
④④⑤⑤ |④-⑤-|
48
口④④口 |----|
①口口① |----|
②口口② |①-②-|
③口口③ |③-④-|
49
④④④④ |----|
口①②口 |①---|
口①②口 |②---|
③口口③ |③-④-|
50
口口口口 |----|
口①口口 |----|
口口②口 |①---|
口口口口 |②---|
51
口口口口 |①---|
口口口口 |----|
口口口口
口口口①

口口口口
③③②②
口口口口 |②-③-|
⑤⑤④④ |④-⑤-|
52
口④④口 |----|
①口口① |----|
②口口② |①-②-|
③口口③ |③-④-|
53
④④④④ |----|
口②①口 |①---|
口②①口 |②---|
③口口③ |③-④-|
54
口口口口 |----|
口口口口 |----|
口③②口 |①---|
①口口① |②-③-|
55
口①①口 |①---|
口口口口 |----|
口口口口 |----|
口口口口 |----|

不確定度: 0

最終更新:2015年09月02日 23:46