Summer Holiday
達見 恵 featured by 佐野宏晃

EXTREME

Level: 8
BPM: 109
Notes: 615

1
口口口口 |----|
口口口口 |----|
口口口口 |----|
口口口口 |----|
2
④口口④ |----|
③口口③ |-①--|
②口口② |②--③|
口①①口 |--④-|
3
口口口口 |-①②③|
口口口口 |④⑤⑥⑦|
①②③口
④⑤⑥⑦

⑧口口⑧
⑨口口⑨
⑩口口⑩ |-⑧-⑨|
口⑪⑪口 |-⑩-⑪|
4
①口口口 |----|
④口口④ |----|
口口③② |--①-|
口口口口 |②③-④|
5
口①⑧口 |---①-②-③-④--|
口⑦②口 |⑤⑥⑦⑧|
口③口⑥
⑤口④口

口口⑮口
口⑭口⑨
⑩口⑬口 |-⑨⑩⑪|
口⑫口⑪ |⑫⑬⑭⑮|
6
⑧④口口 |①②③④|
口口③⑦ |⑤⑥⑦⑧|
⑥②口口
口口①⑤

口口⑭⑭
⑨口⑩口
口⑪口口 |-⑨⑩⑪|
⑬口⑫口 |⑫-⑬⑭|
7
⑤口口口 |-①②-|
③口②② |③④-⑤|
①口④④
口口口口

口口⑧⑧
口口⑩⑩
⑨口口口 |⑥-⑦⑧|
⑦口⑥⑥ |-⑨⑩-|
8
口⑨⑧口 |①②③④⑤⑥|
⑤①⑫口 |⑦⑧⑨⑩⑪⑫|
口⑪②④
⑦③⑥⑩

⑬口⑳⑳
口⑰口⑭
⑮口⑱⑯ |⑬⑭⑮⑯⑰⑱|
口⑲口口 |⑲⑳--|
9
②⑤口⑦ |①②--|
口口③⑥ |③-④-|
口④⑧口 |⑤-⑥-|
⑦口①① |⑦-⑧-|
10
口①口口 |①--②|
①口②口 |--③-|
口②③口
口③①①

口口⑥口
口⑤口口
口口口⑤ |--④-|
口口④口 |⑤⑥--|
11
口口口口 |①②-③|
②口①① |④-⑤-|
口③④口
⑤口口口

口口⑨口
口⑧⑥⑥
⑦口⑧⑧ |⑥-⑦-|
口⑥口口 |⑧-⑨-|
12
①口口⑤ |①-②③|
④口②口 |--④⑤|
口③口口
口口①①

⑨口口⑨
口⑥口口
口口⑧口 |--⑥-|
口⑦口口 |⑦⑧-⑨|
13
口口口口 |--①-|
口①②口 |②-③④|
口③口口
口口④口

⑨⑨⑤⑤
⑦⑧⑦⑦
口口⑨⑨ |⑤-⑥-|
口⑥口口 |⑦⑧-⑨|
14
口口①④ |--①②|
口③口口 |--③④|
口②口口
口口口口

口口⑨⑨
⑧口⑦⑦
口口⑥⑥ |⑤-⑥-|
口⑨⑤⑤ |⑦-⑧⑨|
15
口口口口 |--①-|
口口口口 |②-③④|
口④口②
①口③口

⑤口⑨⑨
⑧⑥⑤⑤
⑦口⑦⑦ |⑤-⑥-|
口⑨口口 |⑦-⑧⑨|
16
口⑥⑥口 |--①②|
⑦口②⑦ |--③④|
⑧①口⑧ |⑤-⑥-|
口⑤④③ |⑦-⑧-|
17
⑤口口⑤ |①---|
口④④口 |②---|
口③③口 |③---|
①②②① |④--⑤|
18
口③口口 |----|
口⑥口② |--①②|
口④口口 |③-④-|
①口⑤口 |⑤-⑥-|
19
口口口口 |①---|
口②口口 |--②-|
②口②口
口②口①

④口口④
③口③口
⑤口口⑤ |③---|
③口③口 |④--⑤|
20
口③④⑤ |①--②|
②⑩⑩② |--③④|
⑥口口⑨ |-⑤⑥⑦|
⑧①①⑦ |⑧⑨-⑩|
21
口⑦①口 |--①-|
口口⑧⑧ |②-③-|
④②口口 |④-⑤-|
⑥口③⑤ |⑥-⑦⑧|
22
③口口③ |----|
②④口② |--①-|
口口口口 |②---|
①口口① |③--④|
23
口口口口 |①②-③|
③口⑤④ |-④-⑤|
口⑤①口
④②口③

⑨⑦⑧⑨
口⑥口口
⑨口⑥⑨ |-⑥-⑦|
⑧口口⑦ |-⑧-⑨|
24
⑤①①⑤ |----|
③口口④ |----|
⑤③④⑤ |①-②-|
②口口② |③④-⑤|
25
⑦③②⑦ |----|
口口口口 |①-②-|
⑤⑦⑦⑥ |③-④-|
①⑤⑥④ |⑤⑥-⑦|
26
口口口口 |----|
口口口口 |--①-|
①口口①
口口口口

⑥②②⑥
⑤口口④
⑥⑤④⑥ |②-③-|
③口口③ |④⑤-⑥|
27
口口①口 |----|
口②口口 |①-②-|
口口口口
口口口口

口口口口
⑤⑦⑦⑥
口⑤⑥口 |③-④-|
⑦④③⑦ |⑤⑥-⑦|
28
③口口② |----|
口④口口 |--①-|
口①⑤口 |②-③-|
口⑥⑥口 |④⑤-⑥|
29
口口口④ |--①-|
②⑤口口 |②-③-|
口口⑥③ |④-⑤-|
①⑦口口 |⑥-⑦-|
30
口②①口 |①--②|
口③③口 |--③④|
①口口②
口④④口

⑥⑦口⑥
口口口口
口⑤⑤口 |-⑤-⑥|
口口口⑧ |--⑦⑧|
31
⑨⑦⑧⑨ |--①-|
⑤口⑥④ |②-③④|
口⑨⑨② |⑤-⑥-|
①③口口 |⑦⑧-⑨|
32
口②口口 |----|
口①①口 |①--②|
①口口①
口口口口

⑦口③⑦
⑤口口⑥
⑦⑤⑥⑦ |③-④-|
④口口④ |⑤⑥-⑦|
33
⑦③②⑦ |----|
口口口口 |①-②-|
⑤⑦⑦⑥ |③-④-|
①⑤⑥④ |⑤⑥-⑦|
34
口口口口 |----|
口口口口 |--①-|
①口口①
口口口口

⑥②②⑥
⑤口口④
⑥⑤④⑥ |②-③-|
③口口③ |④⑤-⑥|
35
口①①口 |----|
④②②④ |①---|
口③③口 |②---|
口口口口 |③--④|
36
口③③口 |-①②-|
口口口口 |③---|
①口口②
口①②口

⑨口口⑨
口④④口
⑤⑨⑨⑧ |④-⑤⑥|
⑦口口⑥ |⑦⑧-⑨|
37
④②②④ |----|
口⑥⑥口 |①-②-|
口口口口 |③-④-|
口③①⑤ |⑤-⑥-|
38
③口口③ |①--②|
②③③② |--③-|
口①①口
口口口口

口口口口
④口口口
④④口口 |----|
④口口口 |--④-|
39
口②②口 |①--②|
口口口① |--③-|
口口①①
口③③①

口⑦⑦口
⑤④④⑥
口⑤⑥口 |--④-|
口口口口 |⑤⑥-⑦|
40
②口口① |--①-|
口③口口 |②-③-|
口口③口
①口口②

⑧⑤⑤⑧
④口口④
⑥⑧⑧⑦ |④-⑤-|
口⑥⑦口 |⑥⑦-⑧|
41
口①口口 |----|
口⑤口② |--①②|
③口⑥口 |③④--|
口口④口 |--⑤⑥|
42
口口①口 |-①②③|
②口⑤口 |④⑤⑥⑦|
⑥口口③
口④口⑦

⑩口口⑪
口口口口
口⑧⑨口 |⑧⑨⑩⑪|
口⑫⑫口 |---⑫|
43
口③口口 |--①②|
口口口① |③④-⑤|
②口④口
⑤口口⑤

口口⑪口
⑧口口⑨
口⑩口⑦ |--⑥⑦|
口⑥口口 |⑧⑨⑩⑪|
44
①口口口 |-①②-|
③口口口 |③④⑤⑥|
⑤口⑥④
口口口②

⑭⑦口⑭
口⑬⑧⑫
口⑨口口 |⑦⑧⑨⑩⑪-|
⑪口⑩口 |⑫⑬-⑭|
45
口口⑥⑥ |-①②③|
③口口口 |-④⑤⑥|
口⑤②口
口①④口

口口口口
口⑦⑦口
口口口口 |----|
口⑧⑧口 |-⑦-⑧|
46
①口口⑧ |---①-②-③-④--|
口⑦口② |⑤⑥⑦⑧|
③口⑥口
⑤口口④

口口⑫口
⑨口口口
口⑪口口 |⑨⑩⑪⑫|
⑬口⑩⑬ |---⑬|
47
⑦⑦④⑥ |-①②③④⑤|
口③口口 |⑥⑦-⑧|
口⑤②口
⑧①口⑧

口口⑭⑭
⑬⑪⑫口
口口⑩口 |-⑨⑩⑪⑫-|
⑮⑨口⑮ |⑬⑭-⑮|
48
③口⑧口 |-①②③④⑤|
⑨⑦口⑥ |⑥⑦⑧⑨⑩⑪|
⑪⑤④②
口①⑩口

⑲⑲口⑫
⑳⑳⑭口
口⑰口⑯ |⑫⑬⑭⑮⑯⑰|
⑬⑮口⑱ |⑱⑲-⑳|
49
④④②② |--①②|
口口口口 |--③④|
口口口口
口①③口

⑧口口⑧
⑥⑤⑤⑦
⑧⑥⑦⑧ |--⑤-|
口口口口 |⑥⑦-⑧|
50
口口口口 |----|
口口①口 |----|
口②口口 |----|
口口口口 |------①②|
51
口口口口 |①---|
口口口口 |----|
口口口口 |----|
口口①口 |----|

不确定度: 0

最終更新:2012年11月06日 21:32