blue moment
ソルラルBOB

EXTREME

Level: 8
BPM: 149
Notes: 484

1
口口口口 |----|
口口口口 |----|
口口口口 |----|
口口口口 |----|
2
①②口口 |----|
口口口口 |----|
口口口口 |①---|
口口口口 |②---|
3
口②①口 |①---|
口口③口 |----|
口④口口 |②-③-|
口口⑤口 |④-⑤-|
4
口口①口 |----|
口②口口 |----|
口口③口 |①-②-|
口④口口 |③-④-|
5
①口口① |----|
口③④口 |①---|
口②②口 |②---|
③口口④ |③-④-|
6
口口②① |----|
口口口口 |----|
口口口口 |①---|
口口口口 |②---|
7
口①②口 |①---|
口③口口 |----|
口口④口 |②-③-|
口⑤口口 |④-⑤-|
8
口①口口 |----|
口口②口 |----|
口③口口 |①-②-|
口口④口 |③-④-|
9
①口口① |----|
口④③口 |①---|
口②②口 |②---|
④口口③ |③-④-|
10
口口口口 |----|
口口口口 |----|
口口口口 |①---|
口②①口 |②---|
11
①①①① |①---|
②③④⑤ |----|
口口口口 |②-③-|
口口口口 |④-⑤-|
12
④口口口 |①-②-|
③口口口 |③-④-|
②口口口
①口口口

口口口口
口口口口
⑧⑦⑥⑤ |⑤-⑥-|
口口口口 |⑦-⑧-|
13
口①①口 |①---|
口口口口 |②---|
口口口口
②口口②

口④⑤口
口口口口
④口口⑤ |③---|
口③③口 |④-⑤-|
14
③口口④ |①---|
①口口① |②---|
③口口④ |③---|
口②②口 |④---|
15
口①①口 |①---|
⑤④③② |----|
口口口口 |②-③-|
口口口口 |④-⑤-|
16
口口口④ |①-②-|
口口口③ |③-④-|
口口口②
口口口①

口口口口
口口口口
⑤⑥⑦⑧ |⑤-⑥-|
口口口口 |⑦-⑧-|
17
⑤①①④ |①---|
口③③口 |②---|
口⑤④口 |③---|
②口口② |④-⑤-|
18
口口口口 |①-②-|
②⑨⑥① |③-④-|
④⑦⑧③ |⑤-⑥⑦|
⑪⑤⑤⑩ |⑧⑨⑩⑪|
19
口①①口 |①---|
口口口口 |----|
口口口口 |----|
口口口口 |----|
20
①口口④ |①-②-|
⑤②③⑥ |③-④-|
⑤③②⑥ |--⑤-|
④口口① |--⑥-|
21
口④④口 |①-②-|
口①②口 |③-④-|
口③④口
口口口口

口口口口
口⑤口口
口口口口 |----|
⑤口口口 |⑤---|
22
⑤口口⑤ |①---|
口口①口 |②-③-|
④②②④ |--④-|
口③③① |--⑤-|
23
⑤①口⑤ |①-②-|
口口②口 |③-④-|
口③口口 |--⑤-|
口口④口 |----|
24
⑥④①⑥ |①-②-|
③口口② |③-④-|
②口口③ |--⑤-|
⑤①④⑤ |--⑥-|
25
口口口② |----|
口①①口 |--①-|
口口②口 |----|
口口口口 |②---|
26
①②②口 |①---|
⑥③③⑥ |②-③-|
⑤①口⑤ |--④-|
④口口④ |⑤-⑥-|
27
④①①④ |--①-|
④②②④ |②-③-|
口③③口 |----|
口口口口 |④---|
28
口⑤⑤口 |①-②-|
⑥③④⑥ |③-④-|
①口口② |--⑤-|
③①②④ |--⑥-|
29
③口口③ |--①-|
口口口口 |--②-|
①口口① |--③-|
口②②口 |----|
30
口口口③ |①---|
③③口④ |--②-|
①口口① |③---|
②②口口 |④---|
31
口口口口 |①---|
口口③③ |--②-|
口④④① |③---|
口口②② |④---|
32
口①③口 |①-②-|
①口口③ |③-④-|
④口口②
口④②口

口口口⑥
口口口口
口口口⑥ |--⑤-|
⑤口口⑤ |--⑥-|
33
口②口口 |--①-|
③口①口 |--②-|
口②口口 |--③-|
③口①口 |----|
34
①口口② |①-②-|
口③④口 |③-④-|
口②①口
④口口③

⑥口口⑥
口口口口
口口口口 |--⑤-|
口⑤⑤口 |--⑥-|
35
口口口口 |--①-|
口口①② |--②-|
②①口口
口口口口

⑤口⑤④
③④口口
口⑤③④ |--③-|
③口口口 |④-⑤-|
36
口②口口 |①---|
口口①② |②---|
②口口口
口①②①

口口口口
口③④口
口④③口 |③--④|
⑤口口⑤ |--⑤-|
37
①①①① |①---|
②口口② |②---|
③⑤⑤③ |③---|
④口口④ |④-⑤-|
38
①口口① |①---|
①③③① |----|
②口口② |②---|
③②②③ |③---|
39
①①①① |①---|
②③④口 |----|
⑤⑤⑤口 |②-③-|
④③②口 |④-⑤-|
40
口口口④ |①-②-|
⑦⑧⑤③ |③-④-|
⑥⑧⑥② |⑤-⑥-|
⑤⑧⑦① |⑦-⑧-|
41
④④④④ |----|
②口口① |①---|
②口口① |②---|
口③③口 |③-④-|
42
口口⑤口 |①---|
口①③⑤ |②---|
口④②④ |③---|
口口④③ |④-⑤-|
43
②口口② |①---|
口③④⑤ |②---|
口⑥⑥⑥ |③-④-|
①⑤④③ |⑤-⑥-|
44
④口口口 |①-②-|
③⑦⑧⑤ |③-④-|
②⑥⑧⑥ |⑤-⑥-|
①⑤⑧⑦ |⑦-⑧-|
45
④口口④ |----|
①口口② |①---|
①口口② |②---|
口③③口 |③-④-|
46
口口口口 |①-②-|
口口口口 |③-④-|
口①②口
③口口④

⑥口口口
⑦口口⑥
⑧口口⑥ |⑤---|
⑨⑤⑤口 |⑥⑦⑧⑨|
47
口①①口 |①---|
口口口口 |----|
口口口口
口口口口

口⑤⑤口
②③④口
口⑤⑤口 |②-③-|
口④③② |④-⑤-|
48
④口⑧⑤ |①-②-|
③⑦⑧⑥ |③-④-|
②⑥⑧⑦ |⑤-⑥-|
①⑤⑧口 |⑦-⑧-|
49
口④④口 |----|
①口口② |①---|
口口口口 |②---|
②③③① |③-④-|
50
①⑤口① |①---|
⑤③口口 |②---|
④②④口 |③---|
③④口口 |④-⑤-|
51
②⑥⑥② |①---|
口⑤④③ |②---|
口⑥⑥口 |③-④-|
③④⑤① |⑤-⑥-|
52
⑤⑧口④ |①-②-|
⑥⑧⑦③ |③-④-|
⑦⑧⑥② |⑤-⑥-|
口⑧⑤① |⑦-⑧-|
53
④④④④ |----|
②口口① |①---|
口口口口 |②---|
①③③② |③-④-|
54
⑦口口⑦ |①-②-|
⑧①②⑧ |③-④-|
⑨③④⑨ |⑤-⑥-|
⑩⑤⑥⑩ |⑦⑧⑨⑩|

不確定度: 0

最終更新:2015年09月02日 23:45