リトライ☆ランデヴー
にゃ~たん(CV:村川梨衣)

BASIC

Level: 4
BPM: 175
Notes: 250

1
口口口口 |----|
口口口口 |----|
口口口口 |----|
口口口口 |----|
2
口口口口 |①---|
口①①口 |----|
口口口口 |----|
口口口口 |----|
3
口口口口 |①---|
口口口口 |----|
口①①口 |----|
口口口口 |----|
4
口口口口 |①---|
口口口口 |----|
口口口口 |----|
口①①口 |----|
5
口口口口 |①---|
口口口口 |②---|
口③②① |③---|
口口口口 |----|
6
①口口① |①---|
口口口口 |----|
口口口口 |----|
口口口口 |----|
7
口口口口 |①---|
①口口① |----|
口口口口 |----|
口口口口 |----|
8
口口口口 |①---|
口②③口 |----|
口口口口 |②---|
口①①口 |③---|
9
口口口口 |----|
②口口② |①---|
口口口口 |②---|
①口口① |----|
10
①①①① |①---|
②口口口 |----|
口口口口 |②---|
口口口口 |----|
11
口口口口 |①---|
口口口① |----|
②口口口 |②---|
口口口口 |----|
12
口口口口 |①---|
口口口口 |----|
口口口① |②---|
②口口口 |----|
13
口口口口 |①---|
口口口口 |----|
口②②口 |②---|
口③③① |③---|
14
①口口① |①---|
口口口② |----|
口口口口 |②---|
口口口口 |----|
15
口口口口 |①---|
①口口口 |----|
口口口② |②---|
口口口口 |----|
16
口口口口 |①---|
口口口口 |----|
①口口口 |②---|
口口口② |----|
17
③口口③ |①---|
口口口口 |②---|
口①①口 |----|
口②②口 |③---|
18
口口口口 |①---|
口①口口 |----|
口口②口 |②---|
口口口口 |----|
19
口口口口 |①---|
①口口口 |②---|
②口口口 |③---|
③口口口 |----|
20
口口口口 |①---|
口口①口 |----|
口②口口 |②---|
口口口口 |----|
21
口口口口 |①---|
口口口① |②---|
口口口② |③---|
口口口③ |----|
22
口口口口 |①---|
口①口口 |----|
口口②口 |②---|
口口口口 |----|
23
口口口口 |①---|
①口口口 |②---|
②口口口 |③---|
③口口口 |----|
24
口口口③ |①---|
口口①口 |----|
口②口口 |②---|
口口口口 |--③-|
25
④④④④ |--①-|
口口口① |--②-|
口口口② |--③-|
口口口③ |④---|
26
口口口口 |①---|
口口①口 |----|
口②口口 |②---|
口口口口 |----|
27
口③③③ |①---|
口口②② |②---|
口口口① |③---|
口口口口 |----|
28
口口口口 |①---|
③①口口 |----|
口口②口 |②---|
口口口口 |--③-|
29
③口口③ |--①-|
口口口口 |--②-|
①口口口 |----|
②口口口 |③---|
30
口口口口 |①---|
口口①口 |----|
口②口口 |②---|
口口口口 |----|
31
口口口口 |①---|
口口口① |②---|
口口口② |③---|
口口口③ |----|
32
口口口口 |①---|
口①口口 |----|
口口②口 |②---|
口口口口 |----|
33
②②②② |①---|
口口口口 |②---|
口口口口 |----|
口①①口 |----|
34
口口口口 |①---|
口①①口 |----|
口②口口 |----|
口口口口 |②---|
35
口口口口 |①---|
口口口口 |----|
口口①口 |----|
口口②口 |②---|
36
②口口口 |①---|
③口口口 |----|
口口口口 |②---|
口①口口 |③---|
37
口口口口 |①---|
口口口口 |----|
①口口口 |----|
口口口口 |----|
38
口口口口 |①---|
口①①口 |----|
口口②口 |----|
口口口口 |②---|
39
口口口② |①---|
口口口③ |----|
口①口口 |②---|
口口口口 |③---|
40
②口口口 |①---|
③口口口 |----|
口口口① |②---|
口口口口 |③---|
41
口口口口 |①---|
口口口口 |----|
①②②口 |②---|
口口口口 |----|
42
①口口① |①---|
口口口口 |----|
口口口口 |----|
口②②口 |②---|
43
①口口① |①---|
口口口口 |----|
口口口口 |----|
②口口② |②---|
44
口①①口 |①---|
口口口口 |----|
口口口口 |----|
口②②口 |②---|
45
①口口① |①---|
口口口口 |----|
口②②口 |②---|
口③③口 |③---|
46
①①①① |①---|
口口口口 |----|
口口口口 |----|
口口口口 |----|
47
①口口① |----|
口口口口 |----|
口口口口 |----|
口口口口 |①---|
48
⑤口口⑤ |①---|
口②③口 |②-③-|
口①①口 |--④-|
口④④口 |--⑤-|
49
口①口口 |----|
口口口口 |----|
口口口口 |----|
口口口口 |①---|
50
⑤口口⑤ |①---|
口口①口 |②-③-|
口②③口 |--④-|
口④④口 |--⑤-|
51
口口口口 |----|
①口口① |----|
②口口② |①---|
口口口口 |②---|
52
⑤口口⑤ |①---|
口②③口 |②-③-|
口口口口 |--④-|
①④④① |--⑤-|
53
口口口口 |----|
口①①口 |①---|
口②②口 |②---|
口③③口 |③---|
54
①口口① |①---|
口口口口 |--②-|
口口口口
②口口②

④④④④
口口口口
口③③口 |--③-|
口口口口 |--④-|
55
口②②口 |----|
口口口口 |----|
口口口口 |①---|
①口口① |②---|
56
⑤口口⑤ |①---|
口③②口 |②-③-|
口①①口 |--④-|
口④④口 |--⑤-|
57
口口①口 |----|
口口口口 |----|
口口口口 |----|
口口口口 |①---|
58
⑤口口⑤ |①---|
口①口口 |②-③-|
口③②口 |--④-|
口④④口 |--⑤-|
59
口口口口 |----|
①口口① |----|
②口口② |①---|
口口口口 |②---|
60
⑤口口⑤ |①---|
口③②口 |②-③-|
口口口口 |--④-|
①④④① |--⑤-|
61
口口口口 |----|
口①①口 |----|
口②②口 |①---|
口口口口 |②---|
62
口口口口 |①---|
口②③口 |----|
口口口口 |----|
口①①口 |②-③-|
63
⑤⑤⑤⑤ |①-②-|
口口口口 |--③-|
口①②口 |--④-|
③④④③ |--⑤-|
64
口口口口 |----|
口口①口 |①---|
口口②口 |②---|
口口③口 |③---|
65
④④④④ |①---|
口①口口 |②---|
口②口口 |③---|
口③口口 |--④-|

不確定度: 0

最終更新:2015年09月02日 23:45