リトライ☆ランデヴー
にゃ~たん(CV:村川梨衣)

ADVANCED

Level: 6
BPM: 175
Notes: 375

1
口口口口 |----|
口口口口 |----|
口口口口 |----|
口口口口 |----|
2
口口口口 |①---|
①②③口 |②---|
口口口口 |③---|
口口口口 |----|
3
口口口口 |①---|
口口口口 |②---|
口③②① |③---|
口口口口 |----|
4
口口口口 |①---|
①②③口 |②---|
口口口口 |③---|
口口口口 |----|
5
口⑤⑤口 |①---|
口口口口 |②---|
④口口④ |③-④-|
③①②③ |--⑤-|
6
口口口口 |①---|
口③②① |②---|
口口口口 |③---|
口口口口 |----|
7
口口口口 |①---|
口口口口 |②---|
①②③口 |③---|
口口口口 |----|
8
⑥口口⑥ |①---|
口②③口 |②-③-④-|
口④⑤口 |⑤---|
口①①口 |⑥---|
9
口口口口 |①---|
④口口① |②---|
口②③口 |③---|
④口口① |④---|
10
①①①① |①---|
口口②口 |②---|
口③口口 |③---|
口口口口 |----|
11
①口口口 |①---|
口②口口 |②---|
口口③口 |③---|
口口口口 |----|
12
口口口① |①---|
口口②口 |②---|
口③口口 |③---|
口口口口 |----|
13
口①②口 |①---|
④口口③ |②---|
⑥口口⑤ |③-④-|
口口口口 |⑤-⑥-|
14
口①口口 |①---|
口②口口 |②---|
口③口口 |③---|
口口口口 |----|
15
口口口口 |①---|
口口③口 |②---|
口口②口 |③---|
口口①口 |----|
16
①口口口 |①---|
②口口口 |②---|
③口口口 |③---|
口口口口 |----|
17
⑥口口⑥ |①-②-|
口①②口 |③-④-|
口③④口 |--⑤-|
口⑤⑤口 |⑥---|
18
口口口口 |①---|
④⑤①口 |②---|
口口②口 |③---|
口口③口 |④-⑤-|
19
口口口口 |①---|
口口①口 |②---|
②口口口 |③---|
③口口口 |----|
20
口口口口 |①---|
口①⑤④ |②---|
口②口口 |③---|
口③口口 |④-⑤-|
21
③口口③ |--①-|
口口口口 |--②-|
口口口① |----|
口口口② |③---|
22
⑥口口⑥ |①-②-|
口①②口 |③-④-|
口③④口 |⑤---|
⑤口口⑤ |⑥---|
23
④口口④ |①---|
口①口口 |②---|
口②口口 |③---|
口③口口 |④---|
24
口⑤⑤口 |①---|
口口①口 |②---|
口口②口 |③---|
④口③④ |④-⑤-|
25
④④④④ |--①-|
口①①口 |--②-|
口②②口 |--③-|
口③③口 |④---|
26
口口口口 |①---|
口口口口 |②---|
①②③④ |③---|
口口口口 |④---|
27
口口口口 |①---|
③口口口 |②---|
③②口口 |③---|
③②①口 |----|
28
口⑤⑤口 |①---|
口口口口 |②---|
④③②① |③---|
口口口口 |④-⑤-|
29
③口口③ |--①-|
口①①口 |--②-|
口②②口 |----|
口口口口 |③---|
30
口口口口 |①---|
口口口口 |②---|
①②③④ |③---|
口口口口 |④---|
31
④口口④ |①---|
口①口口 |②---|
口②口口 |③---|
口③口口 |④---|
32
口口口口 |①---|
④口口④ |②---|
口③②① |③---|
⑤口口⑤ |④-⑤-|
33
①①①① |----|
口②③口 |①---|
口④口口 |--②-|
口口口口 |③-④-|
34
口②口口 |①---|
②口口口 |----|
口口①口 |----|
口口口口 |②---|
35
口口②口 |①---|
口口口② |----|
口口口① |----|
口口①口 |②---|
36
口口口口 |①---|
口②②口 |--②-|
①口口口 |----|
③①口④ |③-④-|
37
②口口② |----|
口口口口 |----|
①口口① |①---|
口口口口 |②---|
38
口口口口 |①---|
口①①口 |----|
②口口口 |----|
口②口口 |②---|
39
口口①口 |①---|
口②②① |--②-|
口③③口 |----|
口口口口 |③---|
40
①口口① |①---|
口③口口 |--②-|
口④口口 |--③-|
②⑤口② |④-⑤-|
41
①③口① |--①-|
③口口口 |--②-|
口④口② |--③-|
口口②口 |--④-|
42
口③②口 |①---|
口口口口 |--②-|
口口①口 |③---|
口④④口 |④---|
43
口口口口 |①---|
③①①③ |②---|
口④④口 |③---|
②口口② |④---|
44
③①①③ |①---|
口口口口 |②---|
②口口② |③---|
口④④口 |④---|
45
口①①口 |①---|
口②③口 |②-③-|
口⑤⑤口 |④---|
④⑥⑥④ |⑤-⑥-|
46
①①①① |①---|
口口口口 |----|
口口口口 |----|
口口口口 |----|
47
②口口② |----|
口口口口 |----|
口口口口 |--①-|
口①①口 |②---|
48
⑤⑤⑤⑤ |①---|
口②③口 |②-③-|
口①①口 |--④-|
④口口④ |--⑤-|
49
口口口③ |----|
口①④口 |①---|
口②口口 |②---|
口口口口 |③-④-|
50
⑤③③⑤ |①---|
口口口口 |②-③-|
口④④① |--④-|
口②②口 |--⑤-|
51
口口口口 |----|
口口③② |①---|
口口③② |②---|
①口口① |③---|
52
⑤②③⑤ |①---|
口①口口 |②-③-|
口①口口 |--④-|
④口口④ |--⑤-|
53
口口口口 |----|
①②③口 |①---|
①②③口 |②---|
口口口口 |③---|
54
①口口① |①---|
口口口② |--②-|
口口口口
口口口②

④④④④
③口口口
口口口口 |--③-|
③口口口 |--④-|
55
②口口② |----|
③口口③ |----|
口口口口 |①---|
①口口① |②-③-|
56
⑤⑤⑤⑤ |①---|
口③②口 |②-③-|
①口口① |--④-|
④口口④ |--⑤-|
57
③口口口 |----|
口④①口 |①---|
口口②口 |②---|
口口口口 |③-④-|
58
⑤③③⑤ |①---|
口口口口 |②-③-|
①④④口 |--④-|
口②②口 |--⑤-|
59
口③③口 |----|
口④④② |①---|
口口口② |②---|
①口口① |③-④-|
60
⑤口口⑤ |①---|
口口口口 |②-③-|
口①①口 |--④-|
②④④③ |--⑤-|
61
口口口口 |----|
口①②口 |----|
口口口口 |①-②-|
口③③口 |--③-|
62
①口口① |①---|
口②③口 |----|
口口口口 |----|
口口口口 |②-③-|
63
口⑤⑤口 |①-②-|
⑤口口⑤ |--③-|
④①②④ |--④-|
③④④③ |--⑤-|
64
口口口口 |----|
口口①口 |①---|
口口②口 |②---|
口口③口 |③---|
65
⑦⑦⑦⑦ |①-②-|
口①②口 |③-④-|
口③④口 |⑤-⑥-|
口⑤⑥口 |--⑦-|

不確定度: 0

最終更新:2015年09月02日 23:44