リトライ☆ランデヴー
にゃ~たん(CV:村川梨衣)

EXTREME

Level: 8
BPM: 175
Notes: 558

1
口口口口 |----|
口口口口 |----|
口口口口 |----|
口口口口 |----|
2
⑦口口口 |①-②-|
⑥①②口 |③-④-|
⑤③④口 |--⑤-|
口口口口 |⑥-⑦-|
3
口口口⑦ |①-②-|
口②①⑥ |③-④-|
口④③⑤ |--⑤-|
口口口口 |⑥-⑦-|
4
⑦口口口 |①-②-|
⑥①②口 |③-④-|
⑤③④口 |--⑤-|
口口口口 |⑥-⑦-|
5
⑦口口⑦ |①-②-|
口②①口 |③-④-|
口④③口 |⑤-⑥-|
口⑥⑤口 |--⑦-|
6
口口口⑦ |①-②-|
口②①⑥ |③-④-|
口④③⑤ |--⑤-|
口口口口 |⑥-⑦-|
7
⑦口口口 |①-②-|
⑥①②口 |③-④-|
⑤③④口 |--⑤-|
口口口口 |⑥-⑦-|
8
口口口② |①---|
⑥口③口 |②-③-④-|
口④口口 |⑤---|
⑤①①口 |⑥---|
9
口口口口 |①---|
④口口① |②---|
④口口① |③---|
④②③① |④---|
10
①①①① |①-②-|
⑥②口⑤ |③-④-|
⑥口③⑤ |--⑤-|
口口口④ |--⑥-|
11
口⑤⑤① |①-②-|
口口②口 |③-④-|
口③口口 |--⑤-|
④⑥⑥口 |--⑥-|
12
①口口口 |①-②-|
⑤②口⑥ |③-④-|
⑤口③⑥ |--⑤-|
口口口④ |--⑥-|
13
⑤口口⑥ |①-②-|
口①②口 |③-④-|
口④③口 |⑤-⑥-|
⑧口口⑦ |⑦-⑧-|
14
口口①口 |①-②-|
②⑤⑥口 |③-④-|
口⑥⑤③ |--⑤-|
口④口口 |--⑥-|
15
⑥①口⑤ |①-②-|
口口口② |③-④-|
③口口口 |--⑤-|
⑤口④⑥ |--⑥-|
16
口口①口 |①-②-|
②⑤⑥口 |③-④-|
口⑥⑤③ |--⑤-|
口④口口 |--⑥-|
17
⑥⑥⑥⑥ |①-②-|
①口口② |③-④-|
口口口口 |--⑤-|
③⑤⑤④ |⑥---|
18
口口口口 |①-②-|
⑥口口① |③---|
⑤口口② |④---|
口④口③ |⑤-⑥-|
19
①④④口 |①---|
口口口口 |②---|
口③②口 |③---|
口口口口 |④---|
20
口口口① |①---|
口口②⑤ |②---|
口③口④ |③---|
口口口口 |④-⑤-|
21
③口口③ |--①-|
口口口口 |--②-|
口口口口 |----|
口①②口 |③---|
22
⑥口口⑥ |①-②-|
口①②口 |③-④-|
口③④口 |⑤---|
⑤口口⑤ |⑥---|
23
口④口口 |①---|
④①口口 |②---|
口口②口 |③---|
口口口③ |④---|
24
④⑤口④ |①---|
⑤口①口 |②---|
口②口口 |③---|
③口口口 |④-⑤-|
25
④④④④ |--①-|
口①口口 |--②-|
口口①② |--③-|
③口②③ |④---|
26
口口口口 |①---|
①②口⑤ |②-③-|
①口③⑤ |④---|
口④口口 |⑤---|
27
口③③③ |①---|
①②②口 |②---|
①口②口 |③---|
①口②② |----|
28
口口口口 |①---|
②口口① |②---|
口口口口
①口口②

④口口③
口⑤口⑤
③口口④ |③---|
⑤口⑤口 |④-⑤-|
29
口②③② |--①-|
①口①③ |--②-|
②口②口 |----|
口①口① |③---|
30
口②④口 |①---|
②口口④ |②---|
③口口① |③---|
口③①口 |④---|
31
口口④① |①---|
口②①④ |②---|
口③②口 |③---|
③口口口 |④---|
32
②口口② |①---|
④口口⑤ |②---|
④口口⑤ |③---|
③①①③ |④-⑤-|
33
②②②② |--①-|
口⑤④口 |②---|
口口口口 |--③-|
口①①③ |④-⑤-|
34
④②③口 |①---|
④口口口 |②---|
口口口口 |③---|
①口口口 |④---|
35
口口口④ |①---|
口口口④ |②---|
口口口① |③---|
口②③① |④---|
36
口③口口 |①---|
③②②口 |--②-|
①口口④ |----|
①口④口 |③-④-|
37
口口①② |①---|
口口③口 |②---|
口口④口 |③-④-|
口口⑤口 |⑤---|
38
口①①口 |①---|
口口口口 |②---|
④口口口 |③---|
②④口③ |④---|
39
口口①口 |①---|
口②②① |--②-|
口③③口 |----|
口口口口 |③---|
40
①口口① |①---|
口③③口 |--②-|
④口口④ |--③-|
②⑤⑤② |④-⑤-|
41
①口口① |--①-|
③口口② |--②-|
口口④④ |--③-|
③口口② |--④-|
42
③③①① |①---|
口口口④ |--②-|
②②口口 |③---|
口口④口 |④---|
43
口口④口 |①---|
③②①口 |②---|
口口口④ |③---|
②③口① |④---|
44
②③口① |①---|
口口口口 |②---|
③②①口 |③---|
口口④④ |④---|
45
口口①① |①---|
③③口⑤ |②-③-|
④⑥⑥④ |④---|
②②口⑤ |⑤-⑥-|
46
①①①① |①---|
②口口口 |②-③-|
③口口口 |④-⑤-|
④⑤⑥⑦ |⑥-⑦-|
47
⑦口口⑦ |①-②-|
⑤④③② |③-④-|
口口口① |⑤-⑥-|
口⑥⑥口 |⑦---|
48
口②③口 |①---|
口口口口 |②-③-|
③口口②
①口口①

口口口⑤
口口⑤口
口⑤口口 |--④-|
⑤④④口 |--⑤-|
49
③口口④ |----|
②口口① |①---|
②口口① |②---|
④口口③ |③-④-|
50
口①①口 |①---|
③口口② |②-③-|
口①①口
口②③口

口⑤⑤口
口口口口
④口口④ |--④-|
口口口口 |--⑤-|
51
②口口② |--①-|
③口口④ |②---|
③口口④ |③---|
①口口① |④---|
52
②⑤⑤③ |①---|
⑤口口⑤ |②-③-|
④③②④ |--④-|
①④④① |--⑤-|
53
口口口口 |----|
③口口③ |①---|
③①②③ |②---|
①口口② |③---|
54
①口口① |①-②-|
口口④口 |③-④-|
口口口口
④②③口

⑧⑧⑧⑧
口⑥口口
口⑤⑦口 |⑤-⑥-|
口口口⑥ |⑦-⑧-|
55
④口口⑤ |--①-|
口③③口 |②---|
①⑤④② |③---|
口口口口 |④-⑤-|
56
口③②口 |①---|
口口口口 |②-③-|
②口口③
①口口①

⑤口口口
口⑤口口
口口⑤口 |--④-|
口④④⑤ |--⑤-|
57
④口口③ |----|
①口口② |①---|
①口口② |②---|
③口口④ |③-④-|
58
口①①口 |①---|
②口口③ |②-③-|
口①①口
口③②口

口⑤⑤口
口口口口
④口口④ |--④-|
口口口口 |--⑤-|
59
③⑤⑥③ |--①-|
⑥口口⑤ |②-③-|
④①①④ |④---|
口②②口 |⑤-⑥-|
60
③⑤⑤② |①---|
⑤口口⑤ |②-③-|
④②③④ |--④-|
①④④① |--⑤-|
61
口口口口 |----|
口②③口 |①---|
②口口③ |②-③-|
①④④① |--④-|
62
①口口① |①-②-|
⑧⑤⑥口 |③-④-|
⑦②③口 |⑤-⑥-|
④⑦⑧④ |⑦-⑧-|
63
③②口① |①-②-|
口口口口 |--③-|
口①口②
口口口③

口口④口
⑤④⑤④
⑤⑤④口 |--④-|
⑤口⑤口 |--⑤-|
64
口②口① |①-②-|
口口口口 |③-④-|
口口口口
口④口③

口口口⑦
口口口⑥
口口口⑤ |--⑤-|
口口口口 |⑥-⑦-|
65
⑦⑦⑦⑦ |①-②-|
⑦①②⑦ |③-④-|
口③④口 |⑤-⑥-|
口⑤⑥口 |--⑦-|

不確定度: 0

最終更新:2015年09月02日 23:42