チルノのパーフェクトさんすう教室
ARM(IOSYS)

BASIC

Level: 3
BPM: 175
Notes: 312

1
口口口口 |----|
口口口口 |----|
口口口口 |----|
口口口口 |----|
2
口口口口 |①---|
口口口口 |----|
口口口口 |②---|
口②①口 |----|
3
口口口口 |①---|
口口口口 |----|
口②①口 |②---|
口口口口 |----|
4
口口口口 |①---|
①②口口 |----|
口口口口 |②---|
口口口口 |----|
5
口口口口 |①---|
口口①② |----|
口口口口 |②---|
口口口口 |----|
6
口口口口 |①---|
口口口口 |----|
口口口口 |②---|
口②①口 |----|
7
口口口口 |①---|
口口口口 |----|
口②①口 |②---|
口口口口 |----|
8
口口口口 |①---|
口口①① |----|
口口②② |②---|
口口口口 |----|
9
口口口口 |①---|
口口口口 |----|
口口口口 |----|
口口①① |----|
10
口口口口 |①---|
口口口口 |----|
口口口口 |----|
口①①口 |----|
11
口口口口 |①---|
口口口口 |----|
口口①口 |----|
口口口口 |----|
12
口口口口 |①---|
口口①口 |----|
口口口口 |----|
口口口口 |----|
13
口口①口 |①---|
口口口口 |----|
口口口口 |----|
口口口口 |----|
14
①口口① |①---|
口②口口 |----|
口口口口 |②---|
口口口口 |----|
15
口口口口 |①---|
口口①口 |----|
口②口口 |②---|
口口口口 |----|
16
口口口口 |①---|
②②①① |----|
口口口口 |②---|
口口口口 |----|
17
口口口口 |①---|
口口口口 |----|
口①①口 |----|
口口口口 |----|
18
口口口④ |①---|
口口口③ |②---|
口口口② |③---|
口口口① |④---|
19
口口①口 |①---|
口口②口 |②---|
口口③口 |③---|
口口④口 |④---|
20
口④口口 |①---|
口③口口 |②---|
口②口口 |③---|
口①口口 |④---|
21
①口口口 |①---|
②口口口 |②---|
③口口口 |③---|
④口口口 |④---|
22
口口口口 |①---|
口口口口 |②---|
口④③口 |③---|
口②①口 |④---|
23
口④③口 |①---|
口②①口 |②---|
口口口口 |③---|
口口口口 |④---|
24
②口口① |①---|
④口口③ |②---|
口口口口 |③---|
口口口口 |④---|
25
口口口口 |①---|
口②②口 |----|
口①①口 |②---|
口③③口 |③---|
26
④口口口 |①---|
③口口口 |②---|
②口口口 |③---|
①口口口 |④---|
27
口①口口 |①---|
口②口口 |②---|
口③口口 |③---|
口④口口 |④---|
28
口口④口 |①---|
口口③口 |②---|
口口②口 |③---|
口口①口 |④---|
29
口口口① |①---|
口口口② |②---|
口口口③ |③---|
口口口④ |④---|
30
口口口口 |①---|
口口口口 |②---|
口③④口 |③---|
口①②口 |④---|
31
口③④口 |①---|
口①②口 |②---|
口口口口 |③---|
口口口口 |④---|
32
①口口② |①---|
③口口④ |②---|
口口口口 |③---|
口口口口 |④---|
33
口口口口 |①---|
④口口④ |②---|
口①①口 |③---|
③②②③ |④---|
34
口口口口 |①---|
口口②口 |----|
口口①口 |②---|
口口口口 |----|
35
口口口口 |①---|
口②口口 |----|
口①口口 |②---|
口口口口 |----|
36
①口口② |①---|
③口口④ |②---|
口口口口 |③---|
口口口口 |④---|
37
口口口口 |①---|
口①①口 |②---|
口②②口 |③---|
口③③口 |----|
38
口口口口 |①---|
②口口口 |----|
①口口口 |②---|
口口口口 |----|
39
口口口口 |①---|
口口口② |----|
口口口① |②---|
口口口口 |----|
40
口②①口 |①---|
口④③口 |②---|
口口口口 |③---|
口口口口 |④---|
41
①口口① |①---|
②口口② |----|
口口口口 |②---|
口口口口 |----|
42
口口口口 |①---|
口口②口 |----|
口口①口 |②---|
口口口口 |----|
43
口口口口 |①---|
口②口口 |----|
口①口口 |②---|
口口口口 |----|
44
①口口② |①---|
③口口④ |②---|
口口口口 |③---|
口口口口 |④---|
45
口口口口 |①---|
口①①口 |②---|
口②②口 |③---|
口③③口 |----|
46
口口口口 |①---|
①口口② |----|
①口口② |②---|
口口口口 |----|
47
口①①口 |①---|
口口口口 |----|
口口口口 |②---|
口②②口 |----|
48
口口口口 |①---|
口口口口 |----|
口①②口 |②---|
口口口口 |----|
49
口口口口 |①---|
口①②口 |----|
口口口口 |②---|
口口口口 |----|
50
口口口① |①---|
口口口口 |----|
口口口口 |----|
口口口口 |----|
51
口口口口 |①---|
口口①口 |----|
口口口口 |----|
口口口口 |----|
52
口口口口 |①---|
口口口口 |----|
口①口口 |----|
口口口口 |----|
53
口口口口 |①---|
口口口口 |----|
口口口口 |----|
①口口口 |----|
54
口口口口 |①---|
口口口口 |②---|
①②③④ |③---|
口口口口 |④---|
55
口口口口 |①---|
④③②① |②---|
口口口口 |③---|
口口口口 |④---|
56
口口口口 |①---|
口口口口 |----|
口①口口 |②---|
口②②口 |----|
57
①①①口 |①---|
①①①口 |----|
①①①口 |----|
口口口口 |----|
58
口口口① |①---|
口口口② |②---|
口口口③ |③---|
口口口④ |④---|
59
口口口口 |①---|
口口口口 |②---|
④口口口 |③---|
③②①口 |④---|
60
②③④口 |①---|
①口口口 |②---|
口口口口 |③---|
口口口口 |④---|
61
口口口口 |①---|
口①①口 |----|
口②②口 |----|
口口口口 |②---|
62
口口口口 |①---|
①②口① |----|
口口口口 |②---|
口口口口 |----|
63
口口口口 |①---|
口口口口 |----|
口①口口 |②---|
口②口口 |----|
64
口口口口 |①---|
口口口口 |----|
口②口口 |②---|
口口①口 |----|
65
口口口口 |①---|
口口①① |②---|
口口②② |③---|
口口③③ |----|
66
④口口口 |①---|
③口口口 |②---|
②口口口 |③---|
①口口口 |④---|
67
口①②③ |①---|
口口口④ |②---|
口口口口 |③---|
口口口口 |④---|
68
口口口口 |①---|
口口口口 |②---|
口口口① |③---|
口④③② |④---|
69
口口口口 |①---|
口②②口 |----|
口①①口 |----|
口口口口 |②---|
70
①口②① |①---|
口口口口 |----|
口口口口 |②---|
口口口口 |----|
71
口口口口 |①---|
口口①口 |----|
口口②口 |②---|
口口口口 |----|
72
③③④④ |①---|
①①②② |②---|
口口口口 |③---|
口口口口 |④---|
73
口口口口 |①---|
口①口口 |②---|
口口②口 |③---|
口③④口 |④---|
74
口口口④ |①---|
口口口③ |②---|
口口口② |③---|
口口口① |④---|
75
口口①口 |①---|
口口②口 |②---|
口口③口 |③---|
口口④口 |④---|
76
口④口口 |①---|
口③口口 |②---|
口②口口 |③---|
口①口口 |④---|
77
①口口口 |①---|
②口口口 |②---|
③口口口 |③---|
④口口口 |④---|
78
口口口口 |①---|
口口口口 |②---|
口④③口 |③---|
口②①口 |④---|
79
口④③口 |①---|
口②①口 |②---|
口口口口 |③---|
口口口口 |④---|
80
②口口① |①---|
④口口③ |②---|
口口口口 |③---|
口口口口 |④---|
81
口口口口 |①---|
口②②口 |----|
口①①口 |②---|
口③③口 |③---|
82
④口口口 |①---|
③口口口 |②---|
②口口口 |③---|
①口口口 |④---|
83
口①口口 |①---|
口②口口 |②---|
口③口口 |③---|
口④口口 |④---|
84
口口④口 |①---|
口口③口 |②---|
口口②口 |③---|
口口①口 |④---|
85
口口口① |①---|
口口口② |②---|
口口口③ |③---|
口口口④ |④---|
86
口口口口 |①---|
口口口口 |②---|
口③④口 |③---|
口①②口 |④---|
87
口③④口 |①---|
口①②口 |②---|
口口口口 |③---|
口口口口 |④---|
88
①口口② |①---|
③口口④ |②---|
口口口口 |③---|
口口口口 |④---|
89
口口口口 |①---|
④口口④ |②---|
口①①口 |③---|
③②②③ |④---|

不確定度: 0

最終更新:2016年04月21日 01:27