チルノのパーフェクトさんすう教室
ARM(IOSYS)

ADVANCED

Level: 6
BPM: 175
Notes: 550

1
口口口口 |----|
口口口口 |----|
口口口口 |----|
口口口口 |----|
2
口口口口 |①-②-|
⑤口口⑤ |③-④-|
口④③口 |--⑤-|
口②①口 |----|
3
口口口口 |①-②-|
⑤口口⑤ |③-④-|
口③④口 |--⑤-|
口①②口 |----|
4
口口口口 |①---|
口③②口 |②---|
④口口① |③---|
口口口口 |④---|
5
口①①口 |①---|
口口口口 |--②-|
口②②口 |----|
口口口口 |----|
6
口口口口 |①-②-|
⑤口口⑤ |③-④-|
口④③口 |--⑤-|
口②①口 |----|
7
口口口口 |①-②-|
⑤口口⑤ |③-④-|
口③④口 |--⑤-|
口①②口 |----|
8
口口①① |①---|
②②口口 |----|
口口口口 |②---|
口口口口 |----|
9
口口口口 |①-②-|
口口口⑦ |③-④-|
⑥②①⑤ |--⑤-|
口④③口 |⑥-⑦-|
10
口②③口 |①---|
①④⑤口 |--②-|
口⑥口口 |③-④-|
口口口口 |⑤-⑥-|
11
口口口口 |①---|
口口口④ |----|
口口①③ |--②-|
口口口② |③-④-|
12
⑤口口① |①---|
④口⑥口 |--②-|
③口口口 |③-④-|
②口口口 |⑤-⑥-|
13
口口口口 |①---|
口①口口 |----|
口口口口 |----|
口③②口 |②-③-|
14
口口口口 |①---|
③口口② |--②-|
⑤口①④ |③-④-|
口口口⑥ |⑤-⑥-|
15
④③③④ |①---|
口②②口 |②---|
口①①口 |③---|
口口口口 |④---|
16
口口口口 |①---|
口口口口 |----|
口②①口 |②---|
口②①口 |----|
17
③口口③ |①---|
②口口② |②---|
①口口① |③---|
口口口口 |----|
18
口口口口 |①---|
口口口口 |②-③-|
③③①① |--④-|
口④②口 |----|
19
③③①① |①---|
口④②口 |②-③-|
口口口口 |--④-|
口口口口 |----|
20
③③①① |①---|
④口口② |②-③-|
口口口口 |--④-|
口口口口 |----|
21
口口口口 |①---|
口④③口 |②---|
口②①口 |③---|
口口口口 |④---|
22
③④②① |①---|
③口口① |②-③-|
口口口口 |--④-|
口口口口 |----|
23
口口口口 |①---|
口口口口 |②-③-|
③④②① |--④-|
③口口① |----|
24
③口口① |①---|
③④②① |②-③-|
口口口口 |--④-|
口口口口 |----|
25
口口口口 |①-②-|
⑥口口⑤ |③-④-|
⑧④③⑦ |⑤-⑥-|
口②①口 |⑦-⑧-|
26
③③①① |①---|
口④②口 |②-③-|
口口口口 |--④-|
口口口口 |----|
27
口口口口 |①---|
口口口口 |②-③-|
③③①① |--④-|
口④②口 |----|
28
③③①① |①---|
④口口② |②-③-|
口口口口 |--④-|
口口口口 |----|
29
口口口口 |①---|
口④③口 |②---|
口②①口 |③---|
口口口口 |④---|
30
③④②① |①---|
③口口① |②-③-|
口口口口 |--④-|
口口口口 |----|
31
口口口口 |①---|
口口口口 |②-③-|
③④②① |--④-|
③口口① |----|
32
①口口① |①--②|
②口口② |--③-|
③⑤口③ |-④--|
④口⑥④ |⑤-⑥-|
33
⑥⑤口⑥ |①-②-|
①②③④ |③-④⑤|
口口口口 |----|
口口口口 |⑥---|
34
口口①口 |①-②-|
口②口口 |③-④-|
口⑤③口 |⑤---|
口④口口 |----|
35
①口口口 |①-②-|
口口口② |③-④-|
③口口⑤ |⑤---|
口口口④ |----|
36
⑤⑤口口 |①-②-|
口口⑥⑥ |③-④-|
口③④口 |⑤---|
口①②口 |⑥---|
37
口口口口 |①-②-|
⑤口口口 |③-④-|
①②③④ |⑤---|
口口口口 |----|
38
口①口口 |①-②-|
口口②口 |③-④-|
口③⑤口 |⑤---|
口口④口 |----|
39
口口口① |①-②-|
②口口口 |③-④-|
⑤口口③ |⑤---|
④口口口 |----|
40
⑥口口⑤ |①-②-|
⑧口口⑦ |③-④-|
口④③口 |⑤-⑥-|
口②①口 |⑦-⑧-|
41
口①①口 |①---|
口口口口 |--②-|
口②③口 |③---|
口口口口 |----|
42
口口口① |①-②-|
口口②口 |③-④-|
⑤③口口 |⑤---|
④口口口 |----|
43
①口口口 |①-②-|
口②口口 |③-④-|
口口③⑤ |⑤---|
口口口④ |----|
44
⑤⑤口口 |①-②-|
口口⑥⑥ |③-④-|
口③④口 |⑤---|
口①②口 |⑥---|
45
口口①① |①---|
②②口口 |②---|
口口③③ |③---|
口口口口 |----|
46
口③③口 |①---|
②③③② |②---|
口④④口 |③---|
①④④① |④---|
47
②③④② |①---|
口⑤口口 |②---|
①口口① |③-④-|
口口口口 |⑤---|
48
⑧口口口 |①-②-|
④⑦口口 |③-④-|
口③⑥⑤ |⑤-⑥-|
口口②① |⑦-⑧-|
49
口②③口 |①---|
口口口① |--②-|
口口口口 |③---|
口口口口 |----|
50
④口口口 |①-②-|
③口口口 |③-④-|
②口口口 |----|
①口口口 |----|
51
口⑤口④ |①-②-|
口口⑥③ |③-④-|
口⑦口② |--⑤-|
口口口① |⑥-⑦-|
52
口口口④ |①-②-|
口口口③ |③-④-|
口口口② |----|
口口口① |----|
53
④口⑤口 |①-②-|
③⑥口口 |③-④-|
②口口口 |--⑤-|
①口口口 |⑥---|
54
口⑥⑤口 |①-②-|
口口⑦口 |③-④-|
口④③口 |--⑤-|
口②①口 |⑥-⑦-|
55
①口口① |①---|
②口口② |②---|
③口口③ |③---|
④口口④ |④---|
56
口口口口 |①---|
口口口口 |----|
口①口口 |②---|
口②②口 |----|
57
①①①口 |①---|
①①①口 |----|
①①①口
口口口口

口口④④
口口口口
口口口② |--②-|
③③口② |③-④-|
58
①口口口 |①---|
①口口② |--②-|
口口口口
口口口口

口口口口
⑥口③口
⑤④口口 |③-④-|
口口口口 |⑤-⑥-|
59
口口④④ |①---|
口①口口 |----|
口口口② |--②-|
③③口② |③-④-|
60
①②口口 |①---|
①口③口 |--②-|
口④口口 |③-④-|
口⑥⑤口 |⑤-⑥-|
61
口口口② |①---|
口口口口 |----|
口口①口 |----|
②口口口 |②---|
62
①口口口 |①---|
⑥口口口 |--②-|
⑤④③② |③-④-|
口口口① |⑤-⑥-|
63
口②①口 |--①-|
口④③口 |②-③-|
口⑥⑤口 |④-⑤-|
口口⑦口 |⑥-⑦-|
64
①口口⑧ |①-②-|
⑦口口② |③-④-|
③口口⑥ |⑤-⑥-|
⑤口口④ |⑦-⑧-|
65
口①①口 |①---|
口②②口 |②---|
口口口口
口口口口

口口⑥⑥
口口口口
口③③④ |③-④-|
⑤⑤口④ |⑤-⑥-|
66
①口口口 |①---|
①⑥④② |--②-|
口⑤③口 |③-④-|
口口口口 |⑤-⑥-|
67
口口④④ |①---|
口口口口 |----|
①口口② |--②-|
③③口② |③-④-|
68
①口口口 |①---|
①口口② |--②-|
口口口口
口口口口

口口口口
⑥④口口
⑤口③口 |③-④-|
口口口口 |⑤-⑥-|
69
口口口② |①---|
口口口口 |----|
口①口口 |----|
②口口口 |②---|
70
①口口口 |①---|
口③②口 |--②-|
口⑤④口 |③-④-|
口口⑥① |⑤-⑥-|
71
口③④口 |①-②-|
②口口⑤ |③-④-|
①口口⑥ |⑤-⑥-|
口⑧⑦口 |⑦-⑧-|
72
②口口② |①---|
口④④口 |②---|
口①①口 |③---|
③口口③ |④---|
73
口口口口 |①-②-|
⑦⑦口口 |③-④-|
口①②口 |⑤-⑥-|
⑤③④⑥ |⑦---|
74
口口口口 |①---|
口口口口 |②-③-|
③③①① |--④-|
口④②口 |----|
75
③③①① |①---|
口④②口 |②-③-|
口口口口 |--④-|
口口口口 |----|
76
③③①① |①---|
④口口② |②-③-|
口口口口 |--④-|
口口口口 |----|
77
口口口口 |①---|
口④③口 |②---|
口②①口 |③---|
口口口口 |④---|
78
③④②① |①---|
③口口① |②-③-|
口口口口 |--④-|
口口口口 |----|
79
口口口口 |①---|
口口口口 |②-③-|
③④②① |--④-|
③口口① |----|
80
③口口① |①---|
③④②① |②-③-|
口口口口 |--④-|
口口口口 |----|
81
口口口口 |①-②-|
⑥口口⑤ |③-④-|
⑧④③⑦ |⑤-⑥-|
口②①口 |⑦-⑧-|
82
③③①① |①---|
口④②口 |②-③-|
口口口口 |--④-|
口口口口 |----|
83
口口口口 |①---|
口口口口 |②-③-|
③③①① |--④-|
口④②口 |----|
84
③③①① |①---|
④口口② |②-③-|
口口口口 |--④-|
口口口口 |----|
85
口口口口 |①---|
口④③口 |②---|
口②①口 |③---|
口口口口 |④---|
86
③④②① |①---|
③口口① |②-③-|
口口口口 |--④-|
口口口口 |----|
87
口口口口 |①---|
口口口口 |②-③-|
③④②① |--④-|
③口口① |----|
88
①口口① |①--②|
②口口② |--③-|
③⑤口③ |-④--|
④口⑥④ |⑤-⑥-|
89
⑥⑤口⑥ |①-②-|
①②③④ |③-④⑤|
口口口口 |----|
口口口口 |⑥---|

不確定度: 0

最終更新:2016年04月21日 01:27