ナイト・オブ・ナイツ
ビートまりお(COOL&CREATE)

BASIC

Level: 4
BPM: 180
Notes: 292

1
口口口口 |----|
口口口口 |----|
口口口口 |----|
口口口口 |----|
2
口口口口 |①---|
①口口口 |----|
口口口口 |----|
口口口口 |----|
3
口口口口 |①---|
口口口① |----|
口口口口 |----|
口口口口 |----|
4
口口口口 |①---|
口口口口 |----|
口①①口 |----|
口口口口 |----|
5
口口口口 |①---|
口①①口 |----|
口口口口 |----|
口口口口 |----|
6
口口口口 |①---|
口口口口 |----|
①口口口 |----|
口口口口 |----|
7
口口口口 |①---|
口口口口 |----|
口口口① |----|
口口口口 |----|
8
口口口口 |①---|
口②②口 |----|
口①①口 |②---|
口口口口 |----|
9
①②③④ |①---|
口口口口 |②---|
口口口口 |③---|
口口口口 |④---|
10
口口口口 |①---|
①口口口 |----|
口口口口 |----|
口口口口 |----|
11
口口口口 |①---|
口口口① |----|
口口口口 |----|
口口口口 |----|
12
口口口口 |①---|
口口口口 |----|
口①①口 |----|
口口口口 |----|
13
口口口口 |①---|
口①①口 |----|
口口口口 |----|
口口口口 |----|
14
口口口口 |①---|
口口口口 |----|
①口口口 |----|
口口口口 |----|
15
口口口口 |①---|
口口口口 |----|
口口口① |----|
口口口口 |----|
16
口口口口 |①---|
口②②口 |----|
口①①口 |②---|
口口口口 |----|
17
口口口口 |①---|
口口口口 |②---|
口口口口 |③---|
①②③④ |④---|
18
口口口③ |①---|
口口口② |----|
①口口口 |②---|
口口口口 |③---|
19
③口口口 |①---|
②口口口 |----|
口口口① |②---|
口口口口 |③---|
20
口口口口 |①---|
口口口口 |----|
口②②口 |②---|
口①①口 |----|
21
③口口③ |①---|
②口口② |----|
口口口口 |②---|
口①①口 |③---|
22
口口口③ |①---|
口口口② |----|
①口口口 |②---|
口口口口 |③---|
23
③口口口 |①---|
②口口口 |----|
口口口① |②---|
口口口口 |③---|
24
口口口口 |①---|
口口口口 |----|
口②②口 |②---|
口①①口 |----|
25
口③③口 |①---|
口②②口 |②---|
①口口① |③---|
口口口口 |----|
26
口口口③ |①---|
口口口② |----|
①口口口 |②---|
口口口口 |③---|
27
③口口口 |①---|
②口口口 |----|
口口口① |②---|
口口口口 |③---|
28
口口口口 |①---|
口口口口 |----|
口②②口 |②---|
口①①口 |----|
29
③口口③ |①---|
②口口② |----|
口口口口 |②---|
口①①口 |③---|
30
口口口③ |①---|
口口口② |----|
①口口口 |②---|
口口口口 |③---|
31
③口口口 |①---|
②口口口 |----|
口口口① |②---|
口口口口 |③---|
32
口口口口 |①---|
口口口口 |----|
口②②口 |②---|
口①①口 |----|
33
口①①口 |①---|
口②②口 |②---|
口③③口 |③---|
口口口口 |----|
34
口口口口 |①---|
①②③④ |②---|
口口口口 |③---|
口口口口 |④---|
35
口口口口 |①---|
口口口口 |②---|
④③②① |③---|
口口口口 |④---|
36
①①口口 |①---|
②②口口 |----|
口口口口 |②---|
口口口口 |----|
37
口口①① |①---|
口口②② |----|
口口口口 |②---|
口口口口 |----|
38
口口口口 |①---|
口口口口 |----|
口②②口 |②---|
口①①口 |----|
39
口口口口 |①---|
④③②① |②---|
口口口口 |③---|
口口口口 |④---|
40
②口口④ |①---|
口口口口 |②---|
①口口③ |③---|
口口口口 |④---|
41
口③③口 |①---|
口口口口 |②---|
口②②口 |③---|
口①①口 |----|
42
口口口口 |①---|
①②③④ |②---|
口口口口 |③---|
口口口口 |④---|
43
口口口口 |①---|
口口口口 |②---|
④③②① |③---|
口口口口 |④---|
44
①①口口 |①---|
②②口口 |----|
口口口口 |②---|
口口口口 |----|
45
口口①① |①---|
口口②② |----|
口口口口 |②---|
口口口口 |----|
46
口口口口 |①---|
口口口口 |----|
口②②口 |②---|
口①①口 |----|
47
口口口口 |①---|
④③②① |②---|
口口口口 |③---|
口口口口 |④---|
48
②口口④ |①---|
口口口口 |②---|
①口口③ |③---|
口口口口 |④---|
49
④口口④ |①---|
口③③口 |②---|
口②②口 |③---|
口①①口 |④---|
50
④口口口 |①---|
③口口口 |②---|
②口口口 |③---|
①口口口 |④---|
51
口口口③ |----|
口口口② |①---|
口口口① |②---|
口口口口 |③---|
52
口④口口 |①---|
口③口口 |②---|
口②口口 |③---|
口①口口 |④---|
53
口口③口 |----|
口口②口 |①---|
口口①口 |②---|
口口口口 |③---|
54
④口口口 |①---|
③口口口 |②---|
②口口口 |③---|
①口口口 |④---|
55
口口口③ |----|
口口口② |①---|
口口口① |②---|
口口口口 |③---|
56
口④口口 |①---|
③口口口 |②---|
②口口口 |③---|
①口口口 |④---|
57
口口口③ |----|
口口口② |①---|
口口口① |②---|
口口口口 |③---|
58
④口口口 |①---|
③口口口 |②---|
②口口口 |③---|
①口口口 |④---|
59
口口口① |----|
口口口② |①---|
口口口③ |②---|
口口口口 |③---|
60
口④口口 |①---|
口③口口 |②---|
②口口口 |③---|
①口口口 |④---|
61
口口口③ |----|
口口口② |①---|
口口口① |②---|
口口口口 |③---|
62
口口口口 |①---|
口口口口 |②---|
口③④口 |③---|
口①②口 |④---|
63
口①②③ |----|
口口口口 |①---|
口口口口 |②---|
口口口口 |③---|
64
口口口口 |①---|
口②③口 |----|
口口口口 |②---|
口①①口 |③---|
65
②口口② |----|
口口口口 |①---|
①口口① |②---|
口口口口 |----|
66
口口口口 |①---|
①②③④ |②---|
口口口口 |③---|
口口口口 |④---|
67
口口口口 |①---|
口口口口 |②---|
④③②① |③---|
口口口口 |④---|
68
①①口口 |①---|
②②口口 |----|
口口口口 |②---|
口口口口 |----|
69
口口①① |①---|
口口②② |----|
口口口口 |②---|
口口口口 |----|
70
口口口口 |①---|
口口口口 |----|
口②②口 |②---|
口①①口 |----|
71
口口口口 |①---|
④③②① |②---|
口口口口 |③---|
口口口口 |④---|
72
②口口④ |①---|
口口口口 |②---|
①口口③ |③---|
口口口口 |④---|
73
口③③口 |①---|
口口口口 |②---|
口②②口 |③---|
口①①口 |----|
74
口口口口 |①---|
①②③④ |②---|
口口口口 |③---|
口口口口 |④---|
75
口口口口 |①---|
口口口口 |②---|
④③②① |③---|
口口口口 |④---|
76
①①口口 |①---|
②②口口 |----|
口口口口 |②---|
口口口口 |----|
77
口口①① |①---|
口口②② |----|
口口口口 |②---|
口口口口 |----|
78
口口口口 |①---|
口口口口 |----|
口②②口 |②---|
①口口① |----|
79
口①②口 |----|
口③口口 |①---|
口口口口 |②---|
口口口口 |③---|
80
②口口④ |①---|
口口口口 |②---|
①口口③ |③---|
口口口口 |④---|
81
④口口④ |①---|
口③③口 |②---|
口②②口 |③---|
口①①口 |④---|

不確定度: 0

最終更新:2016年04月21日 01:30