ナイト・オブ・ナイツ
ビートまりお(COOL&CREATE)

ADVANCED

Level: 7
BPM: 180
Notes: 555

1
口口口口 |----|
口口口口 |----|
口口口口 |----|
口口口口 |----|
2
①④④① |①---|
口②②口 |②--③|
口口口口 |----|
口③③口 |④---|
3
口口口口 |-①--|
①口口① |②--③|
②④⑤② |----|
③口口③ |④-⑤-|
4
①④④① |①---|
口②②口 |②--③|
口口口口 |----|
口③③口 |④---|
5
口口口口 |-①--|
①口口① |②--③|
②④⑤② |----|
③口口③ |④-⑤-|
6
①④④① |①---|
口②②口 |②--③|
口口口口 |----|
口③③口 |④---|
7
口口口口 |-①--|
①口口① |②--③|
②④⑤② |----|
③口口③ |④-⑤-|
8
①④④① |①---|
口②②口 |②--③|
口口口口 |----|
口③③口 |④---|
9
口口口口 |①---|
口口口口 |②---|
②⑤⑥② |③-④-|
①③④① |⑤-⑥-|
10
①④④① |①---|
口②②口 |②--③|
口口口口 |----|
口③③口 |④---|
11
口口口口 |-①--|
①口口① |②--③|
②④⑤② |----|
③口口③ |④-⑤-|
12
①④④① |①---|
口②②口 |②--③|
口口口口 |----|
口③③口 |④---|
13
口口口口 |-①--|
①口口① |②--③|
②④⑤② |----|
③口口③ |④-⑤-|
14
①④④① |①---|
口②②口 |②--③|
口口口口 |----|
口③③口 |④---|
15
口口口口 |-①--|
①口口① |②--③|
②④⑤② |----|
③口口③ |④-⑤-|
16
①④④① |①---|
口②②口 |②--③|
口口口口 |----|
口③③口 |④---|
17
口口口口 |①---|
口③④口 |②---|
②⑤⑥② |③-④-|
①口口① |⑤-⑥-|
18
①④④① |①---|
口口口口 |②---|
口口口口 |③---|
②③③② |④---|
19
口口口口 |①-②-|
①②⑤⑥ |③-④-|
③④⑦⑧ |⑤-⑥-|
口口口口 |⑦-⑧-|
20
①④④① |①---|
口口口口 |②---|
口口口口 |③---|
②③③② |④---|
21
口口口口 |①-②-|
①②⑤⑥ |③-④-|
③④⑦⑧ |⑤-⑥-|
口口口口 |⑦-⑧-|
22
①④④① |①---|
口口口口 |②---|
口口口口 |③---|
②③③② |④---|
23
口口口口 |①-②-|
①②⑤⑥ |③-④-|
③④⑦⑧ |⑤-⑥-|
口口口口 |⑦-⑧-|
24
①口口① |①---|
②口口② |----|
口口口口 |②---|
口口口口 |----|
25
口口口口 |①---|
口③③口 |②---|
口②②口 |③---|
口①①口 |----|
26
①④④① |①---|
口口口口 |②---|
口口口口 |③---|
②③③② |④---|
27
口口口口 |①-②-|
①②⑤⑥ |③-④-|
③④⑦⑧ |⑤-⑥-|
口口口口 |⑦-⑧-|
28
①④④① |①---|
口口口口 |②---|
口口口口 |③---|
②③③② |④---|
29
口口口口 |①-②-|
①②⑤⑥ |③-④-|
③④⑦⑧ |⑤-⑥-|
口口口口 |⑦-⑧-|
30
①④④① |①---|
口口口口 |②---|
口口口口 |③---|
②③③② |④---|
31
口口口口 |①-②-|
①②⑤⑥ |③-④-|
③④⑦⑧ |⑤-⑥-|
口口口口 |⑦-⑧-|
32
①口口① |①---|
口②②口 |----|
口③③口 |②---|
口口口口 |③---|
33
口口口口 |①---|
口口口口 |----|
口口口口 |----|
口①①口 |----|
34
①口口口 |①---|
④口口② |②---|
④口口② |③---|
口口口③ |④---|
35
口①①口 |①---|
口⑤⑥口 |②---|
口③④口 |③-④-|
口②②口 |⑤-⑥-|
36
①口口口 |①---|
④口口② |②---|
④口口② |③---|
口口口③ |④---|
37
口①①口 |①---|
口⑤⑥口 |②---|
口③④口 |③-④-|
口②②口 |⑤-⑥-|
38
口②②口 |①---|
口口口口 |----|
口③③口 |②---|
①口口① |③---|
39
⑦口口⑧ |①-②-|
⑤口口⑥ |③-④-|
③口口④ |⑤-⑥-|
①口口② |⑦-⑧-|
40
⑥③③⑥ |①-②-|
口口口口 |③---|
口⑤②口 |④-⑤-|
口①④口 |⑥---|
41
口③④口 |①-②-|
口口口口 |③-④-|
口⑤⑥口 |⑤-⑥-|
①口口② |----|
42
①口口口 |①---|
④口口② |②---|
④口口② |③---|
口口口③ |④---|
43
口①①口 |①---|
口⑤⑥口 |②---|
口③④口 |③-④-|
口②②口 |⑤-⑥-|
44
①口口口 |①---|
④口口② |②---|
④口口② |③---|
口口口③ |④---|
45
口①①口 |①---|
口⑤⑥口 |②---|
口③④口 |③-④-|
口②②口 |⑤-⑥-|
46
口②②口 |①---|
口口口口 |----|
口③③口 |②---|
①口口① |③---|
47
⑦口口⑧ |①-②-|
⑤口口⑥ |③-④-|
③口口④ |⑤-⑥-|
①口口② |⑦-⑧-|
48
⑥③③⑥ |①-②-|
口口口口 |③---|
口⑤②口 |④-⑤-|
口①④口 |⑥---|
49
⑦③④⑦ |①-②-|
口口口口 |③-④-|
口⑤⑥口 |⑤-⑥-|
①口口② |⑦---|
50
口口口⑤ |①---|
①②③④ |②---|
口口口口 |③---|
口口口口 |④-⑤-|
51
口口口口 |----|
口口口口 |①---|
口①②③ |②---|
口口口口 |③---|
52
口口口⑤ |①---|
①②③④ |②---|
口口口口 |③---|
口口口口 |④-⑤-|
53
口口口口 |----|
口口口口 |①---|
口①②③ |②---|
口口口④ |③-④-|
54
口口口⑤ |①---|
①②③④ |②---|
口口口口 |③---|
口口口口 |④-⑤-|
55
口口口口 |----|
口口口口 |①---|
口①②③ |②---|
口口口口 |③---|
56
口⑤口口 |①---|
①②③④ |②---|
口口口口 |③---|
口口口口 |④-⑤-|
57
口口口口 |----|
口口口口 |①---|
口①②③ |②---|
口口口④ |③-④-|
58
①②③④ |①---|
口口口⑤ |②---|
口口口口 |③---|
口口口口 |④-⑤-|
59
口口口口 |----|
①②③口 |①---|
口口④口 |②---|
口口口口 |③-④-|
60
①②③口 |①---|
口口④⑤ |②---|
口口口口 |③-④-|
口口口口 |--⑤-|
61
口口口口 |----|
口口口口 |①---|
①②③口 |②---|
口口④口 |③-④-|
62
①②④③ |①-②-|
⑤⑥⑧⑦ |③-④-|
口口口口 |⑤-⑥-|
口口口口 |⑦-⑧-|
63
口口④口 |----|
口③③口 |①---|
口②②口 |②---|
口①①口 |③-④-|
64
①口口② |①-②-|
③口口④ |③-④-|
⑤口口⑥ |⑤-⑥-|
⑦口口⑧ |⑦-⑧-|
65
口口口口 |--①-|
口③④口 |②-③-|
口①②口 |④---|
口口口口 |----|
66
①④④① |①---|
口口口口 |②---|
口口口口 |③---|
②③③② |④---|
67
口口口口 |①-②-|
①②⑤⑥ |③-④-|
③④⑦⑧ |⑤-⑥-|
口口口口 |⑦-⑧-|
68
①④④① |①---|
口口口口 |②---|
口口口口 |③---|
②③③② |④---|
69
口口口口 |①-②-|
①②⑤⑥ |③-④-|
③④⑦⑧ |⑤-⑥-|
口口口口 |⑦-⑧-|
70
①④④① |①---|
口口口口 |②---|
口口口口 |③---|
②③③② |④---|
71
口口口口 |①-②-|
①②⑤⑥ |③-④-|
③④⑦⑧ |⑤-⑥-|
口口口口 |⑦-⑧-|
72
①口口① |①---|
口口口口 |----|
口口口口 |②---|
②口口② |----|
73
口③③口 |①---|
口口口口 |②---|
口②②口 |③---|
口①①口 |----|
74
①④④① |①---|
口口口口 |②---|
口口口口 |③---|
②③③② |④---|
75
口口口口 |①-②-|
①②⑤⑥ |③-④-|
③④⑦⑧ |⑤-⑥-|
口口口口 |⑦-⑧-|
76
①④④① |①---|
口口口口 |②---|
口口口口 |③---|
②③③② |④---|
77
口口口口 |①-②-|
①②⑥⑧ |③-④-|
③④⑤⑦ |⑤-⑥-|
口口口口 |⑦-⑧-|
78
①口口① |①---|
口口口口 |--②-|
口口口口
口②口口

⑥口口⑥
口口口口
口④⑤口 |③-④-|
口口③口 |⑤-⑥-|
79
口③③口 |--①-|
口口口口 |②---|
①口口② |③---|
口④④口 |④---|
80
④口口④ |①---|
口①①口 |②---|
口③③口 |③---|
②口口② |④---|
81
口①①口 |①---|
②口口② |②---|
③口口③ |③---|
④口口④ |④---|

不確定度: 0

最終更新:2016年04月21日 01:30