Bad Apple!! feat. nomico
Masayoshi Minoshima

BASIC

Level: 1
BPM: 138
Notes: 194

1
口口口口 |----|
口口口口 |----|
口口口口 |----|
口口口口 |----|
2
口口口口 |①---|
口口口口 |----|
口口①口 |----|
口口口口 |----|
3
口口口口 |①---|
口口①口 |----|
口口口口 |----|
口口口口 |----|
4
口口口口 |①---|
口口口口 |----|
口①口口 |----|
口口口口 |----|
5
口口口口 |①---|
口①口口 |----|
口口口口 |----|
口口口口 |----|
6
口口口口 |①---|
口口口口 |----|
口口①口 |----|
口口口口 |----|
7
口口口口 |①---|
口口①口 |----|
口口口口 |----|
口口口口 |----|
8
口口口口 |①---|
口口口口 |----|
口①口口 |----|
口口口口 |----|
9
口口口口 |①---|
口①口口 |----|
口口口口 |----|
口口口口 |----|
10
口口口口 |①---|
口口口口 |----|
口②②口 |②---|
口①①口 |----|
11
②口口② |①---|
③①①③ |----|
口口口口 |②---|
口口口口 |③---|
12
口口口口 |①---|
口口口口 |----|
口②②口 |②---|
口①①口 |----|
13
②口口② |①---|
③①①③ |----|
口口口口 |②---|
口口口口 |③---|
14
口口口口 |①---|
口口口口 |----|
口②②口 |②---|
口①①口 |----|
15
②口口② |①---|
③①①③ |----|
口口口口 |②---|
口口口口 |③---|
16
口口口口 |①---|
口口口口 |----|
口②②口 |②---|
口①①口 |----|
17
②口口② |①---|
③①①③ |----|
口口口口 |②---|
口口口口 |③---|
18
口口口口 |①---|
口口口口 |----|
②口口口 |②---|
①口口口 |----|
19
②口口口 |①---|
①口口口 |----|
口口口口 |②---|
口口口口 |----|
20
口①口口 |①---|
口②口口 |----|
口口口口 |②---|
口口口口 |----|
21
口口口口 |①---|
口口口口 |----|
口①口口 |②---|
口②口口 |----|
22
口口口口 |①---|
口口口口 |----|
口口②口 |②---|
口口①口 |----|
23
口口②口 |①---|
口口①口 |----|
口口口口 |②---|
口口口口 |----|
24
口口口① |①---|
口口口② |----|
口口口口 |②---|
口口口口 |----|
25
口口口口 |①---|
口口口口 |----|
口口口① |②---|
口口口② |----|
26
口口口口 |①---|
口口口口 |----|
口口口口 |②---|
口①②口 |----|
27
口口口口 |①---|
口口口口 |----|
口①②口 |②---|
口口口口 |----|
28
口口口口 |①---|
口①②口 |----|
口口口口 |②---|
口口口口 |----|
29
口①②口 |①---|
口口口口 |----|
口口口口 |②---|
口口口口 |----|
30
①口口② |①---|
口口口口 |----|
口口口口 |②---|
口口口口 |----|
31
口口口口 |①---|
①口口② |----|
口口口口 |②---|
口口口口 |----|
32
口口口口 |①---|
口口口口 |----|
①口口② |②---|
口口口口 |----|
33
口④④口 |①---|
口③③口 |②---|
口②②口 |③---|
口①①口 |④---|
34
口口口口 |①---|
口口口口 |②---|
①②③口 |③---|
口口口口 |----|
35
口口口口 |①---|
口③②① |②---|
口口口口 |③---|
口口口口 |----|
36
口口口口 |①---|
口口口口 |②---|
①②③口 |③---|
口口口口 |----|
37
口口口口 |①---|
口③②① |②---|
口口口口 |③---|
口口口口 |----|
38
①口口口 |①---|
②口口口 |②---|
③口口口 |③---|
口口口口 |----|
39
口①口口 |①---|
口②口口 |②---|
口③口口 |③---|
口口口口 |----|
40
口口①口 |①---|
口口②口 |②---|
口口③口 |③---|
口口口口 |----|
41
口口口① |①---|
口口口② |②---|
口口口③ |③---|
口口口口 |----|
42
③③口口 |①---|
②②口口 |②---|
①①口口 |③---|
口口口口 |----|
43
口口③③ |①---|
口口②② |②---|
口口①① |③---|
口口口口 |----|
44
③③口口 |①---|
②②口口 |②---|
①①口口 |③---|
口口口口 |----|
45
口口③③ |①---|
口口②② |②---|
口口①① |③---|
口口口口 |----|
46
口口口口 |①---|
口口口口 |②---|
①②③口 |③---|
①②③口 |----|
47
口③②① |①---|
口③②① |②---|
口口口口 |③---|
口口口口 |----|
48
口口口口 |①---|
口③③口 |②---|
口②②口 |③---|
口①①口 |----|
49
①口口① |①---|
②口口② |②---|
③口口③ |③---|
口口口口 |----|
50
口口口口 |①---|
口口口口 |----|
口口②口 |②---|
口口①口 |----|
51
口口②口 |①---|
口口①口 |----|
口口口口 |②---|
口口口口 |----|
52
口口口口 |①---|
口口口口 |----|
口②口口 |②---|
口①口口 |----|
53
口②口口 |①---|
口①口口 |----|
口口口口 |②---|
口口口口 |----|
54
口口口① |①---|
口口口② |----|
口口口口 |②---|
口口口口 |----|
55
口口口口 |①---|
口口口口 |----|
口口口① |②---|
口口口② |----|
56
①口口口 |①---|
②口口口 |----|
口口口口 |②---|
口口口口 |----|
57
口口口口 |①---|
口口口口 |----|
①口口口 |②---|
②口口口 |----|
58
口口口口 |①---|
口口口口 |----|
口口口口 |②---|
口②①口 |----|
59
口口口口 |①---|
口口口口 |----|
口②①口 |②---|
口口口口 |----|
60
口口口口 |①---|
口②①口 |----|
口口口口 |②---|
口口口口 |----|
61
口②①口 |①---|
口口口口 |----|
口口口口 |②---|
口口口口 |----|
62
②口口① |①---|
口口口口 |----|
口口口口 |②---|
口口口口 |----|
63
口口口口 |①---|
②口口① |----|
口口口口 |②---|
口口口口 |----|
64
口口口口 |①---|
口口口口 |----|
②口口① |②---|
口口口口 |----|
65
口口口口 |①---|
口口口口 |----|
口②②口 |②---|
口①①口 |----|
66
口口口口 |①---|
口①①口 |----|
口口口口 |----|
口口口口 |----|

不確定度: 0

最終更新:2016年04月21日 00:55