Bad Apple!! feat. nomico
Masayoshi Minoshima

ADVANCED

Level: 4
BPM: 138
Notes: 336

1
口口口口 |----|
口口口口 |----|
口口口口 |----|
口口口口 |----|
2
口口口① |①---|
口口口② |②---|
口口口③ |③---|
口口口口 |----|
3
口口①口 |①---|
口口②口 |②---|
口口③口 |③---|
口口口口 |----|
4
口①口口 |①---|
口②口口 |②---|
口③口口 |③---|
口口口口 |----|
5
①口口口 |①---|
②口口口 |②---|
③口口口 |③---|
口口口口 |----|
6
①口口口 |①---|
②口口口 |②---|
③口口口 |③---|
口口口口 |----|
7
口①口口 |①---|
口②口口 |②---|
口③口口 |③---|
口口口口 |----|
8
口口①口 |①---|
口口②口 |②---|
口口③口 |③---|
口口口口 |----|
9
口口口① |①---|
口④④② |②---|
口口口③ |③---|
口口口口 |④---|
10
口口口口 |①---|
口口口口 |----|
②口口口 |②---|
①口口口 |----|
11
口②②口 |①---|
①口口口 |----|
口③③口 |②---|
口口口口 |③---|
12
口口口口 |①---|
口口口口 |----|
口口口② |②---|
口口口① |----|
13
口②②口 |①---|
口口口① |----|
口③③口 |②---|
口口口口 |③---|
14
口口口口 |①---|
口口口口 |----|
口②口口 |②---|
口①口口 |----|
15
口②②口 |①---|
口①口口 |----|
口③③口 |②---|
口口口口 |③---|
16
口口口口 |①---|
口口口口 |----|
口口②口 |②---|
口口①口 |----|
17
口②②口 |①---|
口口①口 |----|
口③③口 |②---|
口口口口 |③---|
18
①口口④ |①---|
口②口口 |②---|
口口③口 |③---|
口口口口 |④---|
19
口口口口 |①---|
口口①口 |②---|
口②口口 |③---|
口④③口 |④---|
20
口口口口 |①---|
①②③口 |②---|
口口口④ |③---|
口口口口 |④---|
21
②口①口 |①---|
口口口口 |②---|
③口④口 |③---|
口口口口 |④---|
22
④口口① |①---|
口口②口 |②---|
口③口口 |③---|
口口口口 |④---|
23
口口口口 |①---|
口①口口 |②---|
口口②口 |③---|
口③④口 |④---|
24
口口口口 |①---|
口③②① |②---|
④口口口 |③---|
口口口口 |④---|
25
口口①① |①---|
②②口口 |②---|
口口③③ |③---|
④④口口 |④---|
26
口口口④ |①---|
口②口口 |②---|
①口③口 |③---|
口口口口 |④---|
27
口口口口 |①---|
口③③① |②---|
口④④② |③---|
口口口口 |④---|
28
口口口口 |①---|
①②③口 |②---|
口口口④ |③---|
口口口口 |④---|
29
口②口口 |①---|
口口口① |②---|
③口口口 |③---|
口口④口 |④---|
30
④口口口 |①---|
口口②口 |②---|
口③口① |③---|
口口口口 |④---|
31
口口口口 |①---|
①③③口 |②---|
②④④口 |③---|
口口口口 |④---|
32
口口口口 |①---|
口③②① |②---|
④口口口 |③---|
口口口口 |④---|
33
①①①① |①---|
②②②② |②---|
③③③③ |③---|
④④④④ |④---|
34
口④③② |①---|
口①①口 |②-③-|
⑤口口⑤ |④---|
口口口口 |⑤---|
35
口口口口 |①---|
②③④口 |②-③-|
口口口口 |④---|
⑤①①⑤ |⑤---|
36
②③④口 |①---|
口口口口 |②-③-|
⑤①①⑤ |④---|
口口口口 |⑤---|
37
口⑤⑤口 |①---|
口④③② |②-③-|
口口口口 |④---|
口①①口 |⑤---|
38
口⑤⑤口 |①---|
①口②① |②-③-|
口口③口 |④---|
口口④口 |⑤---|
39
口口口口 |①---|
①②口① |②-③-|
口③口口 |④---|
⑤④口⑤ |⑤---|
40
②口口口 |①---|
③口口口 |②-③-|
④①①口 |④---|
⑤口口⑤ |⑤---|
41
口口口② |①---|
口口口③ |②-③-|
口①①④ |④---|
⑤⑤口口 |⑤---|
42
②②口口 |①---|
③③口口 |②-③-|
④④⑤⑤ |④---|
口口①① |⑤---|
43
②②口口 |①---|
③③①① |②-③-|
口口口口
口口口口

口口口口
口口⑤⑤
④④口口 |④---|
口口口口 |⑤---|
44
口口②② |①---|
①①③③ |②-③-|
口口④④ |④---|
⑤⑤口口 |⑤---|
45
②②口口 |①---|
③③⑤⑤ |②-③-|
④④口口 |④---|
口口①① |⑤---|
46
口口②② |①---|
①①③③ |②-③-|
⑤⑤④④ |④---|
口口口口 |⑤---|
47
②②口口 |①---|
③③口口 |②-③-|
④④⑤⑤ |④---|
口口①① |⑤---|
48
口②②口 |①---|
⑤③③⑤ |②-③-|
口④④口 |④---|
①①口口 |⑤---|
49
①口口① |①---|
口②②口 |②---|
③口口③ |③---|
口口口口 |----|
50
③②①口 |①---|
口口口口 |②---|
口口口口 |③---|
口口口口 |----|
51
口口口口 |①---|
口①②③ |②---|
口口口口 |③---|
口口口口 |----|
52
口口口口 |①---|
口口口口 |②---|
③②①口 |③---|
口口口口 |----|
53
口口口口 |①---|
口口口口 |②---|
口口口口 |③---|
口①②③ |----|
54
口口口③ |①---|
口口口② |②---|
口口口① |③---|
口口口口 |----|
55
口口口口 |①---|
口口①口 |②---|
口口②口 |③---|
口口③口 |----|
56
口③口口 |①---|
口②口口 |②---|
口①口口 |③---|
口口口口 |----|
57
口口口口 |①---|
①口口口 |②---|
②口口口 |③---|
③口口口 |----|
58
口口口口 |①---|
口口口口 |②---|
口口口口 |③---|
口①②③ |----|
59
口口口口 |①---|
口口口口 |②---|
③②①口 |③---|
口口口口 |----|
60
口口口口 |①---|
口①②③ |②---|
口口口口 |③---|
口口口口 |----|
61
③②①口 |①---|
口口口口 |②---|
口口口口 |③---|
口口口口 |----|
62
口口口口 |①---|
口①口口 |②---|
口②口口 |③---|
口③口口 |----|
63
口口③口 |①---|
口口②口 |②---|
口口①口 |③---|
口口口口 |----|
64
①口口① |①---|
②口口② |②---|
③口口③ |③---|
④口口④ |④---|
65
口口口口 |①---|
口①①口 |----|
口①①口
口口口口

②②②②
③③③③
口口口口 |②---|
口口口口 |③---|
66
口口口口 |①---|
口口口口 |----|
①①①① |----|
口口口口 |----|

不確定度: 0

最終更新:2016年04月21日 00:55